<?xml version="1.0" standalone="no"?>
<!DOCTYPE svg PUBLIC "-//W3C//DTD SVG 1.1//EN" "http://www.w3.org/Graphics/SVG/1.1/DTD/svg11.dtd" >
<svg xmlns="http://www.w3.org/2000/svg" xmlns:xlink="http://www.w3.org/1999/xlink" version="1.1">
<metadata>
Created by FontForge 20190801 at Sat May 25 07:32:28 2019
 By Unknown
Copyright (c) 2017 by Timo Gaessner. All rights reserved.
</metadata>
<defs>
<font id="MaisonNeueExtended-Bold" horiz-adv-x="720" >
  <font-face 
    font-family="Maison Neue Extended Bold"
    font-weight="700"
    font-stretch="expanded"
    units-per-em="1000"
    panose-1="2 11 8 5 4 0 0 0 0 0"
    ascent="755"
    descent="-245"
    x-height="530"
    cap-height="700"
    bbox="-766 -305 2470 1060"
    underline-thickness="100"
    underline-position="-220"
    unicode-range="U+000D-FEFF"
  />
<missing-glyph horiz-adv-x="727" 
d="M50 -5h26l66 65l67 -65l63 65l69 -65l71 65l63 -65l68 65l65 -65h28v423q-3 132 -86 211t-208 81q-124 -2 -206 -81q-83 -79 -86 -211v-423zM150 300l-14 14l63 63l-63 64l14 14l63 -64l64 64l14 -14l-64 -64l64 -63l-14 -14l-64 63zM410 300l-14 14l63 63l-63 64l14 14
l63 -64l64 64l14 -14l-64 -64l64 -63l-14 -14l-64 63z" />
    <glyph glyph-name=".notdef" horiz-adv-x="727" 
d="M50 -5h26l66 65l67 -65l63 65l69 -65l71 65l63 -65l68 65l65 -65h28v423q-3 132 -86 211t-208 81q-124 -2 -206 -81q-83 -79 -86 -211v-423zM150 300l-14 14l63 63l-63 64l14 14l63 -64l64 64l14 -14l-64 -64l64 -63l-14 -14l-64 63zM410 300l-14 14l63 63l-63 64l14 14
l63 -64l64 64l14 -14l-64 -64l64 -63l-14 -14l-64 63z" />
    <glyph glyph-name=".null" horiz-adv-x="0" 
 />
    <glyph glyph-name="uni000D" unicode="&#xd;" horiz-adv-x="37" 
 />
    <glyph glyph-name="space" unicode=" " horiz-adv-x="255" 
 />
    <glyph glyph-name="exclam" unicode="!" horiz-adv-x="403" 
d="M126 242h153v458h-153v-458zM119 0h165v160h-165v-160z" />
    <glyph glyph-name="quotedbl" unicode="&#x22;" horiz-adv-x="456" 
d="M79 449h118v251h-118v-251zM259 449h118v251h-118v-251z" />
    <glyph glyph-name="numbersign" unicode="#" horiz-adv-x="883" 
d="M812 424l22 122h-143l27 154h-137l-27 -154h-155l27 154h-138l-27 -154h-145l-22 -122h145l-25 -142h-143l-22 -122h143l-28 -160h138l28 160h155l-28 -160h137l28 160h145l21 122h-144l25 142h143zM507 282h-155l25 142h155z" />
    <glyph glyph-name="dollar" unicode="$" horiz-adv-x="698" 
d="M669 194q-6 115 -95 164q-90 48 -196 67v158q47 -10 77 -38t44 -74l145 35q-22 84 -91 139q-69 54 -175 67v89h-71v-86q-122 -5 -194 -58q-71 -54 -73 -146q5 -99 86 -142q80 -43 181 -64v-187q-51 11 -84 45t-47 97l-147 -29q20 -109 93 -169t185 -73v-100h71v96
q136 3 213 58t78 151v0zM190 512q0 35 31 54t86 22v-147q-51 11 -84 28q-32 16 -33 43v0zM378 112v175q61 -14 100 -36q40 -21 41 -59q0 -36 -36 -58q-36 -21 -105 -22v0z" />
    <glyph glyph-name="percent" unicode="%" horiz-adv-x="1143" 
d="M382 -90l498 815l-111 62l-497 -815zM259 271q94 2 151 62q56 59 58 157q-2 98 -58 158q-57 59 -151 61q-94 -2 -151 -61q-57 -60 -59 -158q2 -98 59 -157q57 -60 151 -62v0zM259 378q-44 1 -67 30q-23 30 -23 82t23 82t67 31q43 -1 66 -31t23 -82t-23 -82
q-23 -29 -66 -30v0zM884 -9q94 2 151 62q56 59 58 157q-2 98 -58 158q-57 59 -151 61q-94 -2 -151 -61q-56 -60 -58 -158q2 -98 58 -157q57 -60 151 -62v0zM884 98q-43 1 -66 30q-24 30 -24 82t24 82q23 30 66 31q43 -1 66 -31q24 -30 24 -82t-24 -82q-23 -29 -66 -30v0z
" />
    <glyph glyph-name="ampersand" unicode="&#x26;" horiz-adv-x="786" 
d="M771 132l-103 73v220h-137v-123l-220 155q-31 22 -42 38q-12 15 -11 34q1 26 24 40q23 15 63 15q87 0 105 -74l145 19q-14 85 -81 135t-169 51q-105 -1 -169 -50q-64 -50 -66 -132q0 -39 17 -74q16 -35 53 -69q-64 -36 -97 -85q-34 -49 -34 -108q0 -102 78 -157
q78 -54 228 -55q80 0 147 24t113 66l77 -55zM355 122q-79 0 -119 21q-39 20 -39 61q0 59 89 105l207 -147q-23 -20 -58 -30q-36 -10 -80 -10v0z" />
    <glyph glyph-name="quotesingle" unicode="'" horiz-adv-x="276" 
d="M79 449h118v251h-118v-251z" />
    <glyph glyph-name="parenleft" unicode="(" horiz-adv-x="378" 
d="M281 -197l88 66q-82 105 -120 207q-37 103 -37 219t37 219q38 102 120 207l-88 66q-99 -112 -150 -235q-52 -124 -52 -257t52 -256q51 -124 150 -236v0z" />
    <glyph glyph-name="parenright" unicode=")" horiz-adv-x="378" 
d="M97 -197q99 112 151 236q51 123 51 256t-51 257q-52 123 -151 235l-88 -66q82 -105 120 -207q38 -103 37 -219q1 -116 -37 -219q-38 -102 -120 -207z" />
    <glyph glyph-name="asterisk" unicode="*" horiz-adv-x="501" 
d="M151 314l100 118l101 -118l74 65l-87 104l113 64l-50 88l-101 -60v125h-101v-125l-101 60l-50 -88l114 -64l-88 -104z" />
    <glyph glyph-name="plus" unicode="+" horiz-adv-x="609" 
d="M559 422h-192v208h-125v-208h-193v-116h193v-208h125v208h192v116z" />
    <glyph glyph-name="comma" unicode="," horiz-adv-x="323" 
d="M85 -148q79 9 119 51q40 41 40 115v131h-165v-149h59q1 -31 -11 -48q-12 -16 -42 -25v-75z" />
    <glyph glyph-name="hyphen" unicode="-" horiz-adv-x="354" 
d="M39 224h276v135h-276v-135z" />
    <glyph glyph-name="period" unicode="." horiz-adv-x="323" 
d="M79 0h165v160h-165v-160z" />
    <glyph glyph-name="slash" unicode="/" horiz-adv-x="556" 
d="M92 -68l460 783l-87 55l-461 -785z" />
    <glyph glyph-name="zero" unicode="0" horiz-adv-x="735" 
d="M368 -15q150 2 243 96q92 95 95 255q-3 160 -95 255q-93 94 -243 96q-150 -2 -243 -96q-93 -95 -96 -255q3 -160 96 -255q93 -94 243 -96v0zM368 115q-86 1 -138 57q-52 57 -53 164q1 107 53 164t138 57t137 -57q52 -57 53 -164q-1 -107 -53 -164q-51 -56 -137 -57v0z
" />
    <glyph glyph-name="one" unicode="1" horiz-adv-x="466" 
d="M233 0h148v672h-135l-222 -115v-153l209 109v-513z" />
    <glyph glyph-name="two" unicode="2" horiz-adv-x="679" 
d="M227 179q16 15 53 31t104 36q135 38 194 92q58 54 57 140q-2 92 -77 150q-74 57 -195 59q-137 -1 -223 -69q-85 -67 -98 -184l148 -14q11 67 55 102t118 35q56 0 90 -22q33 -22 34 -59q2 -38 -39 -65q-40 -28 -150 -60q-73 -22 -120 -48t-78 -59q-26 -28 -40 -63
q-13 -35 -13 -81v-100h579v130h-419q1 18 6 29q4 11 14 20v0z" />
    <glyph glyph-name="three" unicode="3" horiz-adv-x="688" 
d="M352 -15q133 1 212 58q78 57 80 154q-1 53 -29 97q-29 43 -78 66v2q90 50 89 132q-2 87 -77 139q-75 53 -198 54q-127 -1 -208 -58t-101 -158l145 -25q13 57 54 84q42 27 110 27q61 0 95 -20q34 -21 35 -60q0 -36 -31 -55q-31 -20 -89 -20h-85v-110h86q68 0 101 -21
q33 -22 33 -65q-1 -45 -38 -68q-38 -23 -106 -23q-75 0 -118 33q-44 33 -55 100l-145 -29q18 -110 102 -171q83 -62 216 -63v0z" />
    <glyph glyph-name="four" unicode="4" horiz-adv-x="690" 
d="M421 0h148v114h102v132h-102v426h-244l-320 -426v-132h416v-114zM166 246l253 331h2v-331h-255z" />
    <glyph glyph-name="five" unicode="5" horiz-adv-x="684" 
d="M351 -15q143 1 225 65q81 64 83 173q-2 105 -80 170q-77 64 -206 66q-50 0 -94 -11t-79 -33l-2 1l21 126h367v130h-479l-65 -354l138 -38q34 28 75 45q42 18 94 18q78 -1 120 -33t42 -82q-1 -52 -42 -82q-42 -30 -118 -31q-62 -1 -110 24t-70 84l-138 -50
q30 -89 111 -138q82 -49 207 -50v0z" />
    <glyph glyph-name="six" unicode="6" horiz-adv-x="694" 
d="M390 447q-64 0 -116 -16q-52 -17 -85 -47h-2q9 84 57 129q47 45 127 46q56 0 94 -24t53 -70l141 39q-28 86 -104 134q-77 48 -189 49q-152 -2 -243 -98q-92 -96 -94 -259q1 -163 91 -253q90 -91 252 -92q134 2 218 64q83 63 85 167q-2 101 -81 165t-204 66v0zM371 113
q-72 1 -115 31q-44 29 -45 79q1 50 44 80t116 31q74 0 115 -30q41 -29 42 -81q-1 -51 -42 -80q-42 -29 -115 -30v0z" />
    <glyph glyph-name="seven" unicode="7" horiz-adv-x="604" 
d="M110 0h170l304 555v117h-575v-130h402v-2z" />
    <glyph glyph-name="eight" unicode="8" horiz-adv-x="682" 
d="M340 -15q149 2 238 59q88 57 90 152q0 60 -36 105q-36 46 -102 72v2q93 45 93 128q-2 83 -80 133q-77 50 -203 51q-125 -1 -202 -51q-78 -50 -80 -133q0 -42 24 -74q23 -32 68 -54v-2q-65 -26 -100 -72q-36 -45 -36 -105q2 -95 90 -152t236 -59v0zM340 420q-60 0 -93 19
t-33 54q0 33 33 53t93 20q61 0 94 -20q34 -20 34 -53q0 -35 -34 -54q-33 -19 -94 -19v0zM340 124q-80 1 -122 24t-42 62q1 42 44 66t120 25q79 -1 122 -25q42 -24 43 -66q0 -39 -42 -62q-41 -23 -123 -24v0z" />
    <glyph glyph-name="nine" unicode="9" horiz-adv-x="658" 
d="M315 687q-133 -2 -214 -67q-80 -65 -82 -168q2 -102 77 -165q76 -62 204 -64q58 0 101 14q44 13 74 37h2q-7 -82 -45 -122q-37 -40 -102 -40q-54 0 -87 22t-50 73l-139 -42q27 -85 98 -132q70 -47 178 -48q147 0 223 94t76 282q-1 156 -82 241q-81 84 -232 85v0zM167 451
q1 51 41 79q40 29 110 29q69 -1 110 -32q40 -30 41 -77q-1 -51 -40 -79q-40 -29 -110 -29q-72 1 -112 29q-39 29 -40 80v0z" />
    <glyph glyph-name="colon" unicode=":" horiz-adv-x="323" 
d="M79 322h165v160h-165v-160zM79 0h165v160h-165v-160z" />
    <glyph glyph-name="semicolon" unicode=";" horiz-adv-x="323" 
d="M79 322h165v160h-165v-160zM85 -148q79 9 119 51q40 41 40 115v131h-165v-149h59q1 -31 -11 -48q-12 -16 -42 -25v-75z" />
    <glyph glyph-name="less" unicode="&#x3c;" horiz-adv-x="553" 
d="M438 75l66 105l-292 171l292 170l-66 106l-389 -234v-84z" />
    <glyph glyph-name="equal" unicode="=" horiz-adv-x="565" 
d="M49 386h466v117h-466v-117zM49 188h466v118h-466v-118z" />
    <glyph glyph-name="greater" unicode="&#x3e;" horiz-adv-x="553" 
d="M115 75l389 234v84l-389 234l-66 -106l292 -170l-292 -171z" />
    <glyph glyph-name="question" unicode="?" horiz-adv-x="695" 
d="M246 220h139v24q-1 28 15 45q17 18 60 35q80 31 123 75q43 43 43 108q-3 92 -78 149t-192 59q-134 -1 -211 -68q-78 -67 -86 -185l148 -13q5 63 43 98q39 34 106 35q51 0 83 -21q33 -21 34 -57q1 -25 -24 -45t-87 -46t-89 -57q-28 -31 -27 -77v-59zM236 0h165v157h-165
v-157z" />
    <glyph glyph-name="at" unicode="@" horiz-adv-x="858" 
d="M436 -75q58 0 113 11t112 33l-36 87q-51 -22 -97 -33q-46 -10 -96 -10q-131 1 -206 73q-75 73 -76 202q2 126 78 201q76 76 204 78q127 -2 201 -74q73 -72 75 -192q0 -64 -15 -95q-16 -31 -40 -31q-21 0 -29 12q-9 12 -9 40v116q-1 70 -47 110q-46 39 -129 40
q-74 -1 -124 -33q-49 -33 -63 -91l104 -25q8 29 29 44t55 15q29 0 46 -9t17 -25q2 -14 -22 -24q-25 -11 -102 -27q-67 -15 -98 -43q-30 -28 -30 -73q1 -55 42 -86t113 -32q47 0 85 15q38 14 57 41h2q13 -26 40 -39t65 -13q73 0 113 54q40 55 41 162q-3 153 -106 250
q-103 98 -272 101q-170 -3 -275 -103q-104 -101 -107 -264q2 -169 105 -265q104 -96 282 -98v0zM420 175q-28 0 -43 8q-14 8 -14 25q0 15 12 24q13 10 42 17q47 11 64 18q18 6 21 14h2v-56q-1 -23 -24 -36q-23 -14 -60 -14v0z" />
    <glyph glyph-name="A" unicode="A" horiz-adv-x="763" 
d="M603 0h166l-316 700h-143l-315 -700h165l46 108h351zM263 242l118 279h2l118 -279h-238z" />
    <glyph glyph-name="B" unicode="B" horiz-adv-x="721" 
d="M69 0h356q134 0 200 54q66 55 66 164q0 56 -26 98t-72 63v2q34 20 53 54q19 33 19 77q-2 83 -59 135q-57 51 -150 53h-387v-700zM222 420v146h209q40 0 60 -19q21 -19 21 -54t-21 -54q-20 -19 -60 -19h-209zM222 134v167h226q44 0 67 -21q23 -22 23 -61q0 -43 -22 -64
t-69 -21h-225z" />
    <glyph glyph-name="C" unicode="C" horiz-adv-x="750" 
d="M397 -15q132 1 221 69q89 67 113 189l-145 34q-15 -76 -65 -117t-124 -41q-97 2 -155 64q-59 63 -60 167q1 104 60 167q58 62 155 64q71 0 119 -38q49 -38 68 -107l144 36q-27 114 -115 178t-216 65q-163 -3 -264 -103q-101 -99 -104 -262q3 -163 104 -262
q101 -100 264 -103v0z" />
    <glyph glyph-name="D" unicode="D" horiz-adv-x="739" 
d="M69 0h285q161 -1 258 85q96 86 98 265q-2 174 -97 262q-96 88 -257 88h-287v-700zM222 134v432h129q101 0 153 -52q53 -53 53 -164q0 -117 -53 -167t-153 -49h-129z" />
    <glyph glyph-name="E" unicode="E" horiz-adv-x="637" 
d="M69 0h528v134h-375v158h340v127h-340v147h376v134h-529v-700z" />
    <glyph glyph-name="F" unicode="F" horiz-adv-x="637" 
d="M69 0h153v258h361v131h-361v177h382v134h-535v-700z" />
    <glyph glyph-name="G" unicode="G" horiz-adv-x="749" 
d="M391 -15q154 1 241 80t88 221v86h-318v-119h169q-4 -63 -51 -98q-48 -35 -129 -36q-94 2 -151 64t-58 167q1 105 58 167q57 63 151 64q69 -1 114 -36q46 -36 64 -100l143 37q-26 106 -111 169q-84 63 -210 64q-161 -3 -260 -103q-99 -99 -102 -262q3 -163 102 -262
q99 -100 260 -103v0z" />
    <glyph glyph-name="H" unicode="H" horiz-adv-x="765" 
d="M69 0h153v287h320v-287h153v700h-153v-274h-320v274h-153v-700z" />
    <glyph glyph-name="I" unicode="I" horiz-adv-x="292" 
d="M69 0h153v700h-153v-700z" />
    <glyph glyph-name="J" unicode="J" horiz-adv-x="641" 
d="M301 -15q123 1 198 74q76 73 78 204v437h-153v-421q0 -77 -32 -118q-32 -42 -91 -42q-60 0 -93 34q-32 34 -40 106l-148 -20q10 -122 83 -187q73 -66 198 -67v0z" />
    <glyph glyph-name="K" unicode="K" horiz-adv-x="718" 
d="M69 0h153v185l106 114h2l207 -299h186l-293 400l290 300h-209l-287 -308h-2v308h-153v-700z" />
    <glyph glyph-name="L" unicode="L" horiz-adv-x="611" 
d="M69 0h517v135h-364v565h-153v-700z" />
    <glyph glyph-name="M" unicode="M" horiz-adv-x="994" 
d="M69 0h153v459h2l242 -459h62l242 459h2v-459h152v700h-176l-251 -488h-2l-249 488h-177v-700z" />
    <glyph glyph-name="N" unicode="N" horiz-adv-x="788" 
d="M69 0h153v486h2l329 -486h166v700h-153v-485h-2l-328 485h-167v-700z" />
    <glyph glyph-name="O" unicode="O" horiz-adv-x="794" 
d="M397 -15q163 3 264 103q101 99 104 262q-3 163 -104 262q-101 100 -264 103q-163 -3 -264 -103q-101 -99 -104 -262q3 -163 104 -262q101 -100 264 -103v0zM397 119q-97 2 -155 64q-59 62 -60 167q1 105 60 167q58 63 155 64q97 -1 156 -64q58 -62 59 -167
q-1 -105 -59 -167q-59 -62 -156 -64v0z" />
    <glyph glyph-name="P" unicode="P" horiz-adv-x="711" 
d="M69 0h153v242h215q116 1 187 61q70 59 72 168q-2 108 -74 168t-185 61h-368v-700zM222 376v190h206q56 0 85 -22q30 -23 30 -72q-1 -47 -33 -71q-31 -25 -82 -25h-206z" />
    <glyph glyph-name="Q" unicode="Q" horiz-adv-x="803" 
d="M774 68l-75 64q32 44 49 100q17 55 17 118q-3 163 -104 262q-101 100 -264 103q-163 -3 -264 -103q-101 -99 -104 -262q3 -163 104 -262q101 -100 264 -103q65 0 121 17q56 18 101 50l80 -67zM397 119q-97 2 -155 64q-59 62 -60 167q1 105 60 167q58 63 155 64
q97 -1 156 -64q58 -62 59 -167q0 -35 -7 -65q-7 -31 -21 -57l-149 126l-77 -82l149 -125q-23 -14 -51 -21t-59 -7v0z" />
    <glyph glyph-name="R" unicode="R" horiz-adv-x="713" 
d="M511 261q84 19 130 75t47 141q-1 103 -68 163q-66 59 -182 60h-369v-700h153v253h124l162 -253h174l-171 259v2zM222 388v178h199q58 0 86 -21q28 -22 28 -66t-30 -68q-29 -23 -82 -23h-201z" />
    <glyph glyph-name="S" unicode="S" horiz-adv-x="670" 
d="M357 -15q137 1 215 57q78 55 79 152q0 89 -67 144t-206 85q-114 25 -153 44t-36 44q1 32 34 52t89 21q65 0 108 -29q42 -29 59 -86l148 35q-26 98 -109 153q-83 56 -205 57q-128 -2 -202 -60q-74 -57 -75 -144q-1 -78 62 -128q64 -50 207 -82q114 -25 155 -49
q41 -25 38 -58q0 -38 -37 -58q-36 -21 -103 -21q-81 0 -127 36q-47 36 -62 111l-150 -30q21 -118 109 -182q87 -63 229 -64v0z" />
    <glyph glyph-name="T" unicode="T" horiz-adv-x="700" 
d="M273 0h153v565h249v135h-651v-135h249v-565z" />
    <glyph glyph-name="U" unicode="U" horiz-adv-x="762" 
d="M381 -15q151 0 234 71q82 71 83 213v431h-153v-425q0 -81 -42 -119q-42 -37 -122 -37q-81 0 -122 37q-42 38 -42 120v424h-153v-431q1 -142 84 -213q82 -71 233 -71v0z" />
    <glyph glyph-name="V" unicode="V" horiz-adv-x="784" 
d="M315 0h153l321 700h-174l-222 -505h-2l-223 505h-173z" />
    <glyph glyph-name="W" unicode="W" horiz-adv-x="1049" 
d="M186 0h158l179 482h2l178 -482h160l176 700h-156l-119 -484h-2l-170 484h-135l-170 -484h-2l-118 484h-157z" />
    <glyph glyph-name="X" unicode="X" horiz-adv-x="755" 
d="M0 0h187l189 256h2l189 -256h188l-279 355l271 345h-188l-181 -246h-2l-182 246h-187l270 -345z" />
    <glyph glyph-name="Y" unicode="Y" horiz-adv-x="716" 
d="M281 0h153v277l292 423h-175l-192 -296h-2l-192 296h-175l291 -423v-277z" />
    <glyph glyph-name="Z" unicode="Z" horiz-adv-x="704" 
d="M35 0h625v134h-416v2l425 445v119h-624v-134h414v-2l-424 -445v-119z" />
    <glyph glyph-name="bracketleft" unicode="[" horiz-adv-x="353" 
d="M69 -182h265v120h-141v673h141v119h-265v-912z" />
    <glyph glyph-name="backslash" unicode="\" horiz-adv-x="556" 
d="M464 -68l88 53l-461 785l-87 -55z" />
    <glyph glyph-name="bracketright" unicode="]" horiz-adv-x="353" 
d="M284 -182v912h-265v-119h141v-673h-141v-120h265z" />
    <glyph glyph-name="asciicircum" unicode="^" horiz-adv-x="620" 
d="M561 325l-175 375h-152l-175 -375h135l116 264l116 -264h135z" />
    <glyph glyph-name="underscore" unicode="_" horiz-adv-x="605" 
d="M39 -181h526v112h-526v-112z" />
    <glyph glyph-name="grave" unicode="`" horiz-adv-x="353" 
d="M186 590h117l-101 138h-153z" />
    <glyph glyph-name="a" unicode="a" horiz-adv-x="593" 
d="M234 -15q60 0 107 20q47 19 72 53h2v-58h133v337q-1 98 -67 152q-67 55 -184 56q-105 -1 -178 -51q-72 -50 -90 -134l140 -29q10 44 45 69q35 26 87 26q43 0 68 -15t26 -41q1 -19 -26 -31q-27 -13 -100 -23q-125 -17 -180 -58q-54 -42 -53 -115q1 -72 55 -114
q53 -43 143 -44v0zM256 107q-42 0 -62 11t-20 35q-1 23 26 38q28 14 92 26q53 9 79 19q25 10 34 24h2v-63q-1 -39 -43 -64t-108 -26v0z" />
    <glyph glyph-name="b" unicode="b" horiz-adv-x="684" 
d="M368 -15q128 2 207 79q78 76 80 201q-2 123 -81 200q-78 78 -202 80q-53 0 -97 -15q-44 -14 -75 -42h-2v242h-148v-730h137v52h2q30 -33 76 -50q45 -17 103 -17v0zM349 116q-65 1 -107 34t-44 83v67q2 49 45 81q43 33 106 34q72 -1 114 -42q43 -40 44 -108
q-1 -68 -43 -108t-115 -41v0z" />
    <glyph glyph-name="c" unicode="c" horiz-adv-x="618" 
d="M322 -15q103 1 175 51t97 135l-138 40q-16 -47 -49 -71q-33 -25 -85 -25q-65 1 -104 42q-40 40 -41 108q1 68 41 108q39 41 104 42q52 -1 86 -26q34 -26 48 -70l138 40q-25 85 -97 135t-175 51q-127 -2 -209 -80q-81 -77 -84 -200q3 -122 84 -200q82 -77 209 -80v0z" />
    <glyph glyph-name="d" unicode="d" horiz-adv-x="684" 
d="M316 -15q58 0 103 17q46 17 76 50h2v-52h137v730h-148v-242h-2q-31 28 -75 42q-44 15 -97 15q-124 -2 -202 -80q-78 -77 -81 -200q2 -125 81 -201q78 -77 206 -79v0zM335 116q-73 1 -115 41t-43 108q1 68 44 108q42 41 114 42q63 -1 106 -34q43 -32 45 -81v-67
q-2 -50 -44 -83t-107 -34v0z" />
    <glyph glyph-name="e" unicode="e" horiz-adv-x="634" 
d="M326 -15q85 0 147 28t107 79l-92 92q-37 -40 -76 -59q-38 -20 -87 -20q-67 1 -106 31q-40 30 -44 82h430v42q-1 122 -77 202t-211 83q-128 -2 -207 -79t-81 -202q1 -128 79 -202q77 -75 218 -77v0zM177 322q7 47 45 75q37 27 98 28q60 -1 98 -28q37 -28 43 -75h-284z" />
    <glyph glyph-name="f" unicode="f" horiz-adv-x="483" 
d="M132 0h148v404h198v126h-198v36q0 41 44 41h121v127h-139q-82 -1 -128 -40q-45 -40 -46 -110v-54h-127v-126h127v-404z" />
    <glyph glyph-name="g" unicode="g" horiz-adv-x="673" 
d="M343 -240q128 2 206 71t80 183v516h-142v-52h-2q-29 30 -74 46t-102 16q-123 -3 -200 -79q-78 -77 -80 -196q3 -123 81 -200q79 -77 204 -79q55 0 99 17q44 16 72 47h2v-38q-1 -55 -41 -89q-40 -35 -103 -36q-57 -1 -98 19q-40 20 -80 68l-106 -88q48 -62 120 -94
t164 -32v0zM331 116q-72 1 -113 40q-40 39 -41 109q1 66 44 105q42 39 116 40q60 -1 101 -35q41 -33 43 -80v-62q-1 -50 -43 -83t-107 -34v0z" />
    <glyph glyph-name="h" unicode="h" horiz-adv-x="672" 
d="M50 0h148v283q1 59 40 94t104 36q65 -1 101 -35t37 -95v-283h148v303q-2 109 -70 175q-68 65 -184 67q-53 0 -97 -17q-44 -16 -77 -48h-2v250h-148v-730z" />
    <glyph glyph-name="i" unicode="i" horiz-adv-x="247" 
d="M46 617h153v148h-153v-148zM49 0h148v530h-148v-530z" />
    <glyph glyph-name="j" unicode="j" horiz-adv-x="254" 
d="M54 617h153v148h-153v-148zM-81 -206h92q105 -1 150 44t44 143v549h-148v-547q0 -28 -13 -41t-45 -13h-80v-135z" />
    <glyph glyph-name="k" unicode="k" horiz-adv-x="666" 
d="M50 0h148v141l98 83h2l177 -224h181l-259 314l249 216h-207l-239 -213h-2v413h-148v-730z" />
    <glyph glyph-name="l" unicode="l" horiz-adv-x="247" 
d="M49 0h148v730h-148v-730z" />
    <glyph glyph-name="m" unicode="m" horiz-adv-x="975" 
d="M50 0h143v294q1 57 32 89q30 32 85 32q50 0 80 -32q31 -32 32 -89v-294h137v294q1 57 31 89q31 32 85 32q51 0 81 -32t31 -89v-294h143v317q-2 103 -67 165q-66 61 -175 63q-50 0 -94 -19q-45 -18 -79 -55h-2q-27 34 -73 54t-95 20q-51 0 -93 -18t-70 -48h-2v51h-130
v-530z" />
    <glyph glyph-name="n" unicode="n" horiz-adv-x="672" 
d="M50 0h148v283q1 59 40 94t104 36q65 -1 101 -35t37 -95v-283h148v302q-2 110 -70 176q-68 65 -184 67q-53 0 -99 -17q-46 -16 -80 -48h-2v50h-143v-530z" />
    <glyph glyph-name="o" unicode="o" horiz-adv-x="657" 
d="M328 -15q134 3 215 81q82 78 84 199q-2 121 -84 199q-81 78 -215 81q-133 -3 -215 -81t-84 -199q2 -121 84 -199t215 -81v0zM328 115q-70 1 -110 43q-40 41 -41 107q1 66 41 107q40 42 110 43q70 -1 110 -43q40 -41 41 -107q-1 -66 -41 -107q-40 -42 -110 -43v0z" />
    <glyph glyph-name="p" unicode="p" horiz-adv-x="669" 
d="M50 -225h148v266h2q27 -25 71 -40q45 -16 95 -16q120 3 196 80q76 78 78 200q-2 122 -79 200q-76 77 -196 80q-51 0 -96 -15q-44 -16 -75 -47h-2v47h-142v-755zM343 115q-63 1 -103 35q-41 33 -42 82v67q2 48 43 81t101 34q68 -1 108 -41q41 -40 42 -108q-1 -68 -42 -108
q-41 -41 -107 -42v0z" />
    <glyph glyph-name="q" unicode="q" horiz-adv-x="669" 
d="M619 -225v755h-142v-47h-2q-31 31 -75 47q-45 15 -96 15q-120 -3 -196 -80q-77 -78 -79 -200q2 -122 78 -200q76 -77 196 -80q51 0 95 16q45 15 71 40h2v-266h148zM326 115q-66 1 -107 42q-41 40 -42 108q1 68 42 108q40 40 108 41q60 -1 101 -34t43 -81v-67
q-1 -49 -42 -82q-40 -34 -103 -35v0z" />
    <glyph glyph-name="r" unicode="r" horiz-adv-x="439" 
d="M50 0h148v242q1 82 34 122q34 40 94 40q21 0 39 -2q17 -3 38 -9l31 133q-22 7 -44 10q-21 4 -43 4q-48 0 -87 -15q-40 -16 -69 -46h-2v51h-139v-530z" />
    <glyph glyph-name="s" unicode="s" horiz-adv-x="601" 
d="M317 -15q122 1 193 45q70 45 72 120q1 72 -59 112q-59 41 -191 61q-85 14 -116 26t-29 32q1 21 27 34q27 12 74 12q54 0 93 -22t55 -61l135 41q-24 71 -102 115q-77 44 -180 45q-112 -1 -177 -45q-66 -44 -67 -119q-2 -70 59 -110t204 -62q72 -11 102 -24t29 -36
q0 -22 -32 -34q-31 -12 -89 -12q-129 0 -160 102l-139 -33q21 -87 100 -137q79 -49 198 -50v0z" />
    <glyph glyph-name="t" unicode="t" horiz-adv-x="469" 
d="M449 404v126h-171v133h-148v-133h-125v-126h125v-233q-1 -87 43 -129t144 -42h112v137h-97q-32 0 -43 9q-12 10 -11 34v224h171z" />
    <glyph glyph-name="u" unicode="u" horiz-adv-x="654" 
d="M280 -15q56 0 101 17q45 16 78 48h2v-50h143v530h-148v-281q-1 -58 -38 -93q-38 -36 -100 -37q-64 0 -97 34q-33 33 -33 96v281h-148v-303q1 -116 63 -178q63 -63 177 -64v0z" />
    <glyph glyph-name="v" unicode="v" horiz-adv-x="660" 
d="M262 0h135l264 530h-164l-166 -358h-2l-166 358h-163z" />
    <glyph glyph-name="w" unicode="w" horiz-adv-x="945" 
d="M165 0h149l157 376h2l159 -376h148l151 530h-150l-94 -350h-2l-146 350h-133l-145 -350h-2l-94 350h-150z" />
    <glyph glyph-name="x" unicode="x" horiz-adv-x="646" 
d="M-5 0h186l140 178h2l142 -178h186l-231 268l225 262h-186l-136 -171h-2l-134 171h-186l225 -262z" />
    <glyph glyph-name="y" unicode="y" horiz-adv-x="649" 
d="M119 -225h163l367 755h-164l-159 -346h-2l-161 346h-163l245 -501z" />
    <glyph glyph-name="z" unicode="z" horiz-adv-x="635" 
d="M25 0h585v125h-364v2l358 288v115h-566v-125h345v-2l-358 -288v-115z" />
    <glyph glyph-name="braceleft" unicode="{" horiz-adv-x="425" 
d="M305 -182h101v125h-83q-32 -1 -45 15t-13 55v169q-1 44 -25 72q-23 28 -61 29v2q38 1 61 29q24 28 25 72v150q0 39 13 55t45 15h83v124h-101q-88 1 -126 -36q-39 -38 -38 -121v-149q1 -33 -11 -46q-12 -14 -43 -13h-28v-161h28q31 1 43 -13q12 -13 11 -46v-170
q-1 -83 38 -120q38 -38 126 -37v0z" />
    <glyph glyph-name="bar" unicode="|" horiz-adv-x="275" 
d="M89 -300h97v1075h-97v-1075z" />
    <glyph glyph-name="braceright" unicode="}" horiz-adv-x="425" 
d="M120 -182q88 -1 126 37q39 37 38 120v170q-1 33 11 46q12 14 43 13h28v161h-28q-31 -1 -43 13q-12 13 -11 46v149q1 83 -38 121q-38 37 -126 36h-101v-124h83q33 1 46 -15t12 -55v-150q1 -44 25 -72q23 -28 61 -29v-2q-38 -1 -61 -29q-24 -28 -25 -72v-169q1 -39 -12 -55
t-46 -15h-83v-125h101z" />
    <glyph glyph-name="asciitilde" unicode="~" horiz-adv-x="712" 
d="M181 242q12 39 28 58q17 19 37 19q37 -5 94 -38q57 -34 129 -39q73 0 121 43t73 126l-132 49q-12 -39 -28 -58t-37 -19q-37 5 -94 39q-57 33 -129 38q-73 0 -121 -43q-49 -43 -73 -126z" />
    <glyph glyph-name="uni00A0" unicode="&#xa0;" horiz-adv-x="255" 
 />
    <glyph glyph-name="exclamdown" unicode="&#xa1;" horiz-adv-x="323" 
d="M79 530v-160h165v160h-165zM86 288v-458h153v458h-153z" />
    <glyph glyph-name="cent" unicode="&#xa2;" horiz-adv-x="664" 
d="M382 115v300q42 -7 71 -31q29 -23 42 -64l135 39q-23 77 -89 126q-65 49 -159 58v88h-70v-87q-125 -13 -198 -88q-73 -76 -75 -191q2 -115 75 -190q73 -76 198 -89v-97h70v98q94 9 159 58q66 49 89 126l-135 39q-13 -41 -42 -64q-29 -24 -71 -31v0zM184 265q0 61 33 101
t95 50v-302q-62 10 -95 50t-33 101v0z" />
    <glyph glyph-name="sterling" unicode="&#xa3;" horiz-adv-x="691" 
d="M323 135q19 17 29 41q11 24 11 54q0 10 -2 20q-1 10 -5 22h176v118h-248q-23 27 -38 51q-14 23 -15 46q0 43 32 68q31 25 92 26q64 0 106 -26q43 -26 58 -83l148 30q-18 98 -103 155q-86 57 -209 58q-127 -1 -204 -59t-79 -156q0 -34 13 -60q12 -26 33 -50h-59v-118h158
q6 -13 9 -25q2 -12 2 -24q0 -42 -31 -66q-30 -24 -87 -24h-51v-133h591v133h-327v2z" />
    <glyph glyph-name="currency" unicode="&#xa4;" horiz-adv-x="574" 
d="M521 330q0 41 -11 78q-12 37 -32 67l67 66l-46 45l-63 -63q-30 25 -68 38q-37 14 -81 14t-82 -14q-38 -13 -67 -38l-63 63l-46 -45l66 -66q-20 -30 -31 -67t-11 -78q0 -42 12 -79q11 -37 32 -67l-68 -68l46 -44l65 64q30 -24 67 -37t80 -13q42 0 79 14q38 13 67 37
l65 -65l47 45l-68 67q21 30 33 67q11 37 11 79v0zM287 213q-47 0 -72 30t-25 86q0 58 25 88q25 31 72 31t71 -31q25 -31 25 -88q0 -56 -25 -86q-24 -30 -71 -30v0z" />
    <glyph glyph-name="yen" unicode="&#xa5;" horiz-adv-x="736" 
d="M736 700h-175l-192 -296h-2l-192 296h-175l243 -353h-174v-107h222v-48h-222v-107h222v-85h153v85h223v107h-223v48h223v107h-175z" />
    <glyph glyph-name="brokenbar" unicode="&#xa6;" horiz-adv-x="275" 
d="M89 350h97v425h-97v-425zM89 -300h97v425h-97v-425z" />
    <glyph glyph-name="section" unicode="&#xa7;" horiz-adv-x="717" 
d="M560 117q45 29 66 63t21 76q0 46 -35 85q-35 40 -112 66l-135 45q-69 22 -93 38q-25 16 -23 38q0 25 25 42q25 16 69 17q44 0 77 -23q33 -22 42 -66l150 20q-15 90 -90 143q-74 53 -180 54q-110 -2 -177 -54q-66 -53 -68 -133q0 -39 15 -70t46 -56q-46 -29 -67 -63
q-22 -34 -22 -76q0 -46 35 -85q36 -40 113 -66l135 -44q69 -22 93 -38q25 -16 23 -38q0 -26 -25 -42t-69 -17q-44 0 -77 22q-34 22 -43 66l-149 -19q15 -90 89 -144q75 -53 181 -54q110 2 177 55q66 52 68 133q0 39 -15 70q-14 30 -45 55v0zM302 222q-48 15 -67 28
q-19 14 -18 31q0 17 12 32q13 15 42 32l9 -3l135 -45q48 -15 67 -28t18 -30q0 -17 -12 -32q-13 -16 -41 -32l-10 3z" />
    <glyph glyph-name="dieresis" unicode="&#xa8;" horiz-adv-x="446" 
d="M49 580h130v128h-130v-128zM266 580h130v128h-130v-128z" />
    <glyph glyph-name="copyright" unicode="&#xa9;" horiz-adv-x="694" 
d="M347 16q137 3 222 88q84 86 86 219q-2 133 -86 219t-222 89q-137 -3 -221 -89q-85 -86 -87 -219q2 -133 87 -219q84 -85 221 -88v0zM347 87q-104 2 -167 69q-63 66 -65 167q2 101 65 168q63 66 167 69q104 -3 167 -69q63 -67 65 -168q-2 -99 -65 -166q-64 -67 -167 -70v0
zM351 146q61 1 102 35q41 35 49 92l-80 16q-12 -63 -73 -63q-33 0 -52 26q-19 25 -19 72t19 72q19 26 52 26q61 0 73 -63l80 16q-8 57 -49 92q-41 34 -102 35q-72 -1 -116 -50t-45 -128q1 -79 45 -128t116 -50v0z" />
    <glyph glyph-name="ordfeminine" unicode="&#xaa;" horiz-adv-x="300" 
d="M115 417q29 0 51 9q22 8 34 23h1v-25h74v175q-1 51 -34 79q-34 29 -94 29q-54 -1 -91 -25q-36 -25 -46 -68l77 -17q6 21 23 32q16 11 40 11q20 0 32 -5q11 -5 11 -16q1 -9 -12 -15t-48 -13q-65 -13 -94 -34t-28 -57q1 -39 28 -61q28 -22 76 -22v0zM131 482q-20 0 -30 5
q-10 6 -10 17q-1 12 12 19t47 15q21 5 32 10q10 4 13 9h1v-28q0 -19 -17 -33q-18 -13 -48 -14v0z" />
    <glyph glyph-name="guillemotleft" unicode="&#xab;" horiz-adv-x="537" 
d="M172 82h121l-114 193l114 193h-121l-113 -193zM366 82h121l-114 193l114 193h-121l-113 -193z" />
    <glyph glyph-name="logicalnot" unicode="&#xac;" horiz-adv-x="667" 
d="M464 147h153v311h-568v-134h415v-177z" />
    <glyph glyph-name="uni00AD" unicode="&#xad;" horiz-adv-x="354" 
d="M39 224h276v135h-276v-135z" />
    <glyph glyph-name="registered" unicode="&#xae;" horiz-adv-x="694" 
d="M347 631q-137 -3 -221 -89q-85 -86 -87 -219q2 -133 87 -219q84 -85 221 -88q137 3 222 88q84 86 86 219q-2 133 -86 219t-222 89v0zM347 87q-104 2 -167 69q-63 66 -65 167q2 101 65 168q63 66 167 69q104 -3 167 -69q63 -67 65 -168q-2 -99 -65 -166q-64 -67 -167 -70
v0zM498 388q0 49 -32 78q-32 28 -97 29h-140v-342h84v119h33l54 -119h93l-66 128q36 14 54 42q17 28 17 65v0zM313 428h54q23 0 35 -11q12 -10 12 -30q0 -22 -13 -34q-12 -13 -34 -13h-54v88z" />
    <glyph glyph-name="macron" unicode="&#xaf;" horiz-adv-x="448" 
d="M49 590h349v87h-349v-87z" />
    <glyph glyph-name="degree" unicode="&#xb0;" horiz-adv-x="457" 
d="M228 328q87 2 143 54q55 51 57 134q-2 83 -57 135q-56 52 -143 54q-87 -2 -142 -54t-57 -135q2 -83 57 -134q55 -52 142 -54v0zM228 432q-39 1 -62 24t-24 60q1 38 24 61t62 24q40 -1 63 -24t24 -61q-1 -37 -24 -60t-63 -24v0z" />
    <glyph glyph-name="plusminus" unicode="&#xb1;" horiz-adv-x="611" 
d="M370 513v176h-125v-176h-193v-117h193v-176h125v176h192v117h-192zM49 43h511v118h-511v-118z" />
    <glyph glyph-name="acute" unicode="&#xb4;" horiz-adv-x="353" 
d="M49 590h118l136 138h-153z" />
    <glyph glyph-name="paragraph" unicode="&#xb6;" horiz-adv-x="692" 
d="M174 -136h153v698h132v-698h153v836h-434q-68 0 -112 -41q-45 -41 -47 -118q2 -71 45 -113q43 -43 110 -45v-519z" />
    <glyph glyph-name="periodcentered" unicode="&#xb7;" horiz-adv-x="263" 
d="M49 299h165v160h-165v-160z" />
    <glyph glyph-name="cedilla" unicode="&#xb8;" horiz-adv-x="353" 
d="M191 -35q-15 0 -29 -3l31 46l-75 2l-63 -102l59 -25q25 19 55 19q21 0 34 -8t13 -22q0 -16 -13 -25q-12 -10 -35 -10q-19 0 -36 6q-17 7 -36 20l-47 -67q27 -19 59 -29q32 -11 65 -11q61 1 96 30q34 30 35 81q-1 44 -31 71q-31 26 -82 27v0z" />
    <glyph glyph-name="ordmasculine" unicode="&#xba;" horiz-adv-x="338" 
d="M169 417q70 1 114 40q44 40 45 105q-1 66 -45 105t-114 40q-70 -1 -114 -40t-45 -105q1 -65 45 -105q44 -39 114 -40v0zM169 496q-32 0 -50 18t-18 48t18 48t50 18t50 -18t18 -48t-18 -48t-50 -18v0z" />
    <glyph glyph-name="guillemotright" unicode="&#xbb;" horiz-adv-x="537" 
d="M171 82l113 193l-113 193h-121l114 -193l-114 -193h121zM365 82l113 193l-113 193h-121l114 -193l-114 -193h121z" />
    <glyph glyph-name="onequarter" unicode="&#xbc;" horiz-adv-x="967" 
d="M247 -82l484 801l-93 55l-484 -802zM163 280h107v420h-99l-152 -79v-107l144 76v-310zM789 0h107v67h61v95h-61v258h-177l-190 -258v-95h260v-67zM646 162l142 191h1v-191h-143z" />
    <glyph glyph-name="onehalf" unicode="&#xbd;" horiz-adv-x="975" 
d="M638 774l-484 -802l93 -54l484 801zM163 280h107v420h-99l-152 -79v-107l144 76v-310zM708 118q8 7 25 13q17 7 47 15q93 25 132 60q39 34 38 89q-1 60 -49 96q-48 37 -127 38q-86 -1 -139 -43q-53 -43 -61 -116l104 -9q5 36 30 56q26 20 66 20q32 0 51 -12
q19 -11 19 -31q1 -20 -23 -35q-25 -16 -86 -33q-41 -12 -70 -26t-48 -32q-36 -35 -36 -101v-67h363v94h-248q1 8 4 14t8 10v0z" />
    <glyph glyph-name="threequarters" unicode="&#xbe;" horiz-adv-x="1058" 
d="M338 -82l484 801l-93 55l-484 -802zM220 271q84 1 133 36q48 36 49 98q0 34 -16 59q-17 25 -47 39v1q23 13 35 33q12 19 12 44q-1 58 -48 93q-47 34 -123 35q-76 -1 -125 -36q-49 -36 -63 -99l100 -18q7 30 30 47t58 17q31 0 49 -12t18 -32t-15 -30q-16 -10 -45 -10h-48
v-80h54q36 0 52 -10q16 -11 16 -34q0 -24 -20 -37q-20 -14 -56 -14q-38 0 -63 20q-24 19 -33 59l-105 -23q13 -69 66 -107t135 -39v0zM880 0h107v67h61v95h-61v258h-177l-190 -258v-95h260v-67zM737 162l142 191h1v-191h-143z" />
    <glyph glyph-name="questiondown" unicode="&#xbf;" horiz-adv-x="695" 
d="M459 530h-165v-157h165v157zM449 310h-139v-24q1 -28 -15 -45q-17 -18 -60 -35q-80 -31 -123 -75q-43 -43 -43 -108q3 -92 78 -149t192 -59q134 1 212 68q77 67 85 185l-148 13q-5 -63 -43 -98q-39 -34 -106 -35q-51 0 -83 21q-33 21 -34 57q-1 25 24 45t87 46t90 57
q27 31 26 77v59z" />
    <glyph glyph-name="Agrave" unicode="&#xc0;" horiz-adv-x="763" 
d="M453 760l-101 138h-153l137 -138h117zM603 0h166l-316 700h-143l-315 -700h165l46 108h351zM263 242l118 279h2l118 -279h-238z" />
    <glyph glyph-name="Aacute" unicode="&#xc1;" horiz-adv-x="763" 
d="M560 898h-153l-101 -138h118zM603 0h166l-316 700h-143l-315 -700h165l46 108h351zM263 242l118 279h2l118 -279h-238z" />
    <glyph glyph-name="Acircumflex" unicode="&#xc2;" horiz-adv-x="763" 
d="M382 829l82 -89l70 63l-78 82h-148l-78 -82l69 -63zM603 0h166l-316 700h-143l-315 -700h165l46 108h351zM263 242l118 279h2l118 -279h-238z" />
    <glyph glyph-name="Atilde" unicode="&#xc3;" horiz-adv-x="763" 
d="M306 795q32 -2 69 -20q37 -17 87 -20q49 0 80 30q30 30 34 87h-74q-8 -33 -43 -33q-32 2 -68 19q-37 17 -87 19q-51 0 -81 -31q-30 -30 -34 -86h74q4 18 15 27q11 8 28 8v0zM603 0h166l-316 700h-143l-315 -700h165l46 108h351zM263 242l118 279h2l118 -279h-238z" />
    <glyph glyph-name="Adieresis" unicode="&#xc4;" horiz-adv-x="763" 
d="M338 878h-130v-128h130v128zM555 878h-130v-128h130v128zM603 0h166l-316 700h-143l-315 -700h165l46 108h351zM263 242l118 279h2l118 -279h-238z" />
    <glyph glyph-name="Aring" unicode="&#xc5;" horiz-adv-x="763" 
d="M603 0h166l-297 658q29 18 45 46q16 29 16 64q-1 59 -43 96q-41 37 -108 38q-66 -1 -107 -38q-42 -37 -43 -96q0 -35 16 -63t44 -46l-297 -659h165l46 108h351zM382 836q31 0 50 -19q19 -18 19 -49q0 -30 -19 -49q-19 -18 -50 -19q-30 1 -49 19q-18 19 -19 49q1 31 19 49
q19 19 49 19v0zM263 242l118 279h2l118 -279h-238z" />
    <glyph glyph-name="AE" unicode="&#xc6;" horiz-adv-x="1008" 
d="M968 572v128h-635l-338 -700h167l53 114h303v-114h450v128h-305v167h270v121h-270v156h305zM274 239l156 333h88v-333h-244z" />
    <glyph glyph-name="Ccedilla" unicode="&#xc7;" horiz-adv-x="750" 
d="M731 243l-145 34q-15 -76 -65 -117t-124 -41q-97 2 -155 64q-59 63 -60 167q1 104 60 167q58 62 155 64q71 0 119 -38q49 -38 68 -107l144 36q-27 114 -115 178t-216 65q-163 -3 -264 -103q-101 -99 -104 -262q2 -149 89 -247q87 -97 230 -115l-59 -95l59 -25
q25 19 55 19q21 0 34 -8t13 -22q0 -16 -13 -25q-12 -10 -35 -10q-19 0 -36 6q-17 7 -36 20l-47 -67q27 -19 59 -29q32 -11 65 -11q61 1 96 30q34 30 35 81q-1 44 -31 71q-31 26 -82 27q-15 0 -29 -3l26 39q122 8 204 75q82 66 105 182v0z" />
    <glyph glyph-name="Egrave" unicode="&#xc8;" horiz-adv-x="637" 
d="M290 760h117l-101 138h-153zM69 0h528v134h-375v158h340v127h-340v147h376v134h-529v-700z" />
    <glyph glyph-name="Eacute" unicode="&#xc9;" horiz-adv-x="637" 
d="M260 760h118l136 138h-153zM69 0h528v134h-375v158h340v127h-340v147h376v134h-529v-700z" />
    <glyph glyph-name="Ecircumflex" unicode="&#xca;" horiz-adv-x="637" 
d="M336 829l82 -89l70 63l-78 82h-148l-78 -82l69 -63zM598 566v134h-529v-700h528v134h-375v158h340v127h-340v147h376z" />
    <glyph glyph-name="Edieresis" unicode="&#xcb;" horiz-adv-x="637" 
d="M162 750h130v128h-130v-128zM379 750h130v128h-130v-128zM69 0h528v134h-375v158h340v127h-340v147h376v134h-529v-700z" />
    <glyph glyph-name="Igrave" unicode="&#xcc;" horiz-adv-x="292" 
d="M100 760h117l-101 138h-153zM69 0h153v700h-153v-700z" />
    <glyph glyph-name="Iacute" unicode="&#xcd;" horiz-adv-x="292" 
d="M70 760h118l136 138h-153zM69 0h153v700h-153v-700z" />
    <glyph glyph-name="Icircumflex" unicode="&#xce;" horiz-adv-x="292" 
d="M220 885h-148l-78 -82l69 -63l83 89l82 -89l70 63zM69 0h153v700h-153v-700z" />
    <glyph glyph-name="Idieresis" unicode="&#xcf;" horiz-adv-x="292" 
d="M-28 750h130v128h-130v-128zM189 750h130v128h-130v-128zM69 0h153v700h-153v-700z" />
    <glyph glyph-name="Eth" unicode="&#xd0;" horiz-adv-x="739" 
d="M356 700h-287v-290h-95v-122h95v-288h285q161 -1 258 85q96 86 98 265q-2 174 -97 262q-96 88 -257 88v0zM351 134h-129v154h182v122h-182v156h129q101 0 153 -52q53 -53 53 -164q0 -117 -53 -167t-153 -49v0z" />
    <glyph glyph-name="Ntilde" unicode="&#xd1;" horiz-adv-x="788" 
d="M475 755q49 0 80 30q30 30 34 87h-74q-8 -33 -43 -33q-32 2 -68 19q-37 17 -87 19q-51 0 -81 -31q-30 -30 -34 -86h74q4 18 15 27q11 8 28 8q32 -2 69 -20q37 -17 87 -20v0zM69 0h153v486h2l329 -486h166v700h-153v-485h-2l-328 485h-167v-700z" />
    <glyph glyph-name="Ograve" unicode="&#xd2;" horiz-adv-x="794" 
d="M351 775h117l-101 138h-153zM397 -15q163 3 264 103q101 99 104 262q-3 163 -104 262q-101 100 -264 103q-163 -3 -264 -103q-101 -99 -104 -262q3 -163 104 -262q101 -100 264 -103v0zM397 119q-97 2 -155 64q-59 62 -60 167q1 105 60 167q58 63 155 64q97 -1 156 -64
q58 -62 59 -167q-1 -105 -59 -167q-59 -62 -156 -64v0z" />
    <glyph glyph-name="Oacute" unicode="&#xd3;" horiz-adv-x="794" 
d="M321 775h118l136 138h-153zM397 -15q163 3 264 103q101 99 104 262q-3 163 -104 262q-101 100 -264 103q-163 -3 -264 -103q-101 -99 -104 -262q3 -163 104 -262q101 -100 264 -103v0zM397 119q-97 2 -155 64q-59 62 -60 167q1 105 60 167q58 63 155 64q97 -1 156 -64
q58 -62 59 -167q-1 -105 -59 -167q-59 -62 -156 -64v0z" />
    <glyph glyph-name="Ocircumflex" unicode="&#xd4;" horiz-adv-x="794" 
d="M397 844l82 -89l70 63l-78 82h-148l-78 -82l69 -63zM397 715q-163 -3 -264 -103q-101 -99 -104 -262q3 -163 104 -262q101 -100 264 -103q163 3 264 103q101 99 104 262q-3 163 -104 262q-101 100 -264 103v0zM397 119q-97 2 -155 64q-59 62 -60 167q1 105 60 167
q58 63 155 64q97 -1 156 -64q58 -62 59 -167q-1 -105 -59 -167q-59 -62 -156 -64v0z" />
    <glyph glyph-name="Otilde" unicode="&#xd5;" horiz-adv-x="794" 
d="M477 770q49 0 80 30q30 30 34 87h-74q-8 -33 -43 -33q-32 2 -68 19q-37 17 -87 19q-51 0 -81 -31q-30 -30 -34 -86h74q4 18 15 27q11 8 28 8q32 -2 69 -20q37 -17 87 -20v0zM397 -15q163 3 264 103q101 99 104 262q-3 163 -104 262q-101 100 -264 103q-163 -3 -264 -103
q-101 -99 -104 -262q3 -163 104 -262q101 -100 264 -103v0zM397 119q-97 2 -155 64q-59 62 -60 167q1 105 60 167q58 63 155 64q97 -1 156 -64q58 -62 59 -167q-1 -105 -59 -167q-59 -62 -156 -64v0z" />
    <glyph glyph-name="Odieresis" unicode="&#xd6;" horiz-adv-x="794" 
d="M223 765h130v128h-130v-128zM440 765h130v128h-130v-128zM397 -15q163 3 264 103q101 99 104 262q-3 163 -104 262q-101 100 -264 103q-163 -3 -264 -103q-101 -99 -104 -262q3 -163 104 -262q101 -100 264 -103v0zM397 119q-97 2 -155 64q-59 62 -60 167q1 105 60 167
q58 63 155 64q97 -1 156 -64q58 -62 59 -167q-1 -105 -59 -167q-59 -62 -156 -64v0z" />
    <glyph glyph-name="multiply" unicode="&#xd7;" horiz-adv-x="573" 
d="M132 106l154 156l155 -156l82 80l-157 156l157 156l-82 82l-155 -156l-154 156l-83 -82l157 -156l-157 -156z" />
    <glyph glyph-name="Oslash" unicode="&#xd8;" horiz-adv-x="794" 
d="M674 599l50 56l-68 55l-48 -55q-44 29 -98 45q-53 15 -113 15q-163 -3 -264 -103q-101 -99 -104 -262q0 -75 24 -138q23 -63 67 -111l-51 -57l68 -55l49 56q44 -29 98 -45q53 -15 113 -15q163 3 264 103q101 99 104 262q0 75 -24 138q-23 63 -67 111v0zM178 350
q1 107 60 171q59 63 159 65q35 0 65 -9q30 -8 55 -24l-302 -343q-18 29 -27 64q-10 35 -10 76v0zM397 114q-35 0 -65 9q-30 8 -56 24l303 343q18 -29 28 -64q9 -35 9 -76q-1 -107 -60 -171q-59 -63 -159 -65v0z" />
    <glyph glyph-name="Ugrave" unicode="&#xd9;" horiz-adv-x="762" 
d="M335 760h117l-101 138h-153zM381 -15q151 0 234 71q82 71 83 213v431h-153v-425q0 -81 -42 -119q-42 -37 -122 -37q-81 0 -122 37q-42 38 -42 120v424h-153v-431q1 -142 84 -213q82 -71 233 -71v0z" />
    <glyph glyph-name="Uacute" unicode="&#xda;" horiz-adv-x="762" 
d="M305 760h118l136 138h-153zM381 -15q151 0 234 71q82 71 83 213v431h-153v-425q0 -81 -42 -119q-42 -37 -122 -37q-81 0 -122 37q-42 38 -42 120v424h-153v-431q1 -142 84 -213q82 -71 233 -71v0z" />
    <glyph glyph-name="Ucircumflex" unicode="&#xdb;" horiz-adv-x="762" 
d="M381 829l82 -89l70 63l-78 82h-148l-78 -82l69 -63zM545 700v-425q0 -81 -42 -119q-42 -37 -122 -37q-81 0 -122 37q-42 38 -42 120v424h-153v-431q1 -142 84 -213q82 -71 233 -71t234 71q82 71 83 213v431h-153z" />
    <glyph glyph-name="Udieresis" unicode="&#xdc;" horiz-adv-x="762" 
d="M207 750h130v128h-130v-128zM424 750h130v128h-130v-128zM381 -15q151 0 234 71q82 71 83 213v431h-153v-425q0 -81 -42 -119q-42 -37 -122 -37q-81 0 -122 37q-42 38 -42 120v424h-153v-431q1 -142 84 -213q82 -71 233 -71v0z" />
    <glyph glyph-name="Yacute" unicode="&#xdd;" horiz-adv-x="716" 
d="M283 760h118l136 138h-153zM281 0h153v277l292 423h-175l-192 -296h-2l-192 296h-175l291 -423v-277z" />
    <glyph glyph-name="Thorn" unicode="&#xde;" horiz-adv-x="711" 
d="M437 584h-215v116h-153v-700h153v127h215q116 1 187 60q70 60 72 168q-2 108 -74 168t-185 61v0zM428 261h-206v189h206q56 0 85 -22q30 -22 30 -72q-1 -47 -33 -71q-31 -24 -82 -24v0z" />
    <glyph glyph-name="germandbls" unicode="&#xdf;" horiz-adv-x="640" 
d="M50 0h148v484q0 50 32 77q31 27 89 27q51 0 81 -22q29 -21 30 -58q0 -40 -29 -60q-30 -21 -87 -21h-47v-116h86q52 0 81 -23t29 -65q0 -47 -30 -72q-31 -24 -91 -24h-75v-127h60q135 1 209 56t75 158q0 62 -32 107q-31 45 -88 66v2q41 20 63 55q22 34 22 77
q-2 87 -72 140q-71 53 -186 54q-126 -1 -196 -61q-71 -61 -72 -167v-487z" />
    <glyph glyph-name="agrave" unicode="&#xe0;" horiz-adv-x="593" 
d="M251 605h117l-101 138h-153zM234 -15q60 0 107 20q47 19 72 53h2v-58h133v337q-1 98 -67 152q-67 55 -184 56q-105 -1 -178 -51q-72 -50 -90 -134l140 -29q10 44 45 69q35 26 87 26q43 0 68 -15t26 -41q1 -19 -26 -31q-27 -13 -100 -23q-125 -17 -180 -58
q-54 -42 -53 -115q1 -72 55 -114q53 -43 143 -44v0zM256 107q-42 0 -62 11t-20 35q-1 23 26 38q28 14 92 26q53 9 79 19q25 10 34 24h2v-63q-1 -39 -43 -64t-108 -26v0z" />
    <glyph glyph-name="aacute" unicode="&#xe1;" horiz-adv-x="593" 
d="M221 605h118l136 138h-153zM234 -15q60 0 107 20q47 19 72 53h2v-58h133v337q-1 98 -67 152q-67 55 -184 56q-105 -1 -178 -51q-72 -50 -90 -134l140 -29q10 44 45 69q35 26 87 26q43 0 68 -15t26 -41q1 -19 -26 -31q-27 -13 -100 -23q-125 -17 -180 -58
q-54 -42 -53 -115q1 -72 55 -114q53 -43 143 -44v0zM256 107q-42 0 -62 11t-20 35q-1 23 26 38q28 14 92 26q53 9 79 19q25 10 34 24h2v-63q-1 -39 -43 -64t-108 -26v0z" />
    <glyph glyph-name="acircumflex" unicode="&#xe2;" horiz-adv-x="593" 
d="M297 674l82 -89l70 63l-78 82h-148l-78 -82l69 -63zM297 545q-105 -1 -178 -51q-72 -50 -90 -134l140 -29q10 44 45 69q35 26 87 26q43 0 68 -15t26 -41q1 -19 -26 -31q-27 -13 -100 -23q-125 -17 -180 -58q-54 -42 -53 -115q1 -72 55 -114q53 -43 143 -44q60 0 107 20
q47 19 72 53h2v-58h133v337q-1 98 -67 152q-67 55 -184 56v0zM407 197q-1 -39 -43 -64t-108 -26q-42 0 -62 11t-20 35q-1 23 26 38q28 14 92 26q53 9 79 19q25 10 34 24h2v-63z" />
    <glyph glyph-name="atilde" unicode="&#xe3;" horiz-adv-x="593" 
d="M377 600q49 0 80 30q30 30 34 87h-74q-8 -33 -43 -33q-32 2 -68 19q-37 17 -87 19q-51 0 -81 -31q-30 -30 -34 -86h74q4 18 15 27q11 8 28 8q32 -2 69 -20q37 -17 87 -20v0zM234 -15q60 0 107 20q47 19 72 53h2v-58h133v337q-1 98 -67 152q-67 55 -184 56
q-105 -1 -178 -51q-72 -50 -90 -134l140 -29q10 44 45 69q35 26 87 26q43 0 68 -15t26 -41q1 -19 -26 -31q-27 -13 -100 -23q-125 -17 -180 -58q-54 -42 -53 -115q1 -72 55 -114q53 -43 143 -44v0zM256 107q-42 0 -62 11t-20 35q-1 23 26 38q28 14 92 26q53 9 79 19
q25 10 34 24h2v-63q-1 -39 -43 -64t-108 -26v0z" />
    <glyph glyph-name="adieresis" unicode="&#xe4;" horiz-adv-x="593" 
d="M123 595h130v128h-130v-128zM340 595h130v128h-130v-128zM234 -15q60 0 107 20q47 19 72 53h2v-58h133v337q-1 98 -67 152q-67 55 -184 56q-105 -1 -178 -51q-72 -50 -90 -134l140 -29q10 44 45 69q35 26 87 26q43 0 68 -15t26 -41q1 -19 -26 -31q-27 -13 -100 -23
q-125 -17 -180 -58q-54 -42 -53 -115q1 -72 55 -114q53 -43 143 -44v0zM256 107q-42 0 -62 11t-20 35q-1 23 26 38q28 14 92 26q53 9 79 19q25 10 34 24h2v-63q-1 -39 -43 -64t-108 -26v0z" />
    <glyph glyph-name="aring" unicode="&#xe5;" horiz-adv-x="593" 
d="M285 565q60 1 97 34q38 33 39 86q-1 53 -39 86q-37 34 -97 35q-59 -1 -96 -35q-38 -33 -39 -86q1 -53 39 -86q37 -33 96 -34v0zM285 624q-27 0 -44 17t-17 44t17 44t44 17q28 0 45 -17t17 -44t-17 -44t-45 -17v0zM234 -15q60 0 107 20q47 19 72 53h2v-58h133v337
q-1 98 -67 152q-67 55 -184 56q-105 -1 -178 -51q-72 -50 -90 -134l140 -29q10 44 45 69q35 26 87 26q43 0 68 -15t26 -41q1 -19 -26 -31q-27 -13 -100 -23q-125 -17 -180 -58q-54 -42 -53 -115q1 -72 55 -114q53 -43 143 -44v0zM256 107q-42 0 -62 11t-20 35q-1 23 26 38
q28 14 92 26q53 9 79 19q25 10 34 24h2v-63q-1 -39 -43 -64t-108 -26v0z" />
    <glyph glyph-name="ae" unicode="&#xe6;" horiz-adv-x="990" 
d="M961 260q-2 128 -80 206q-77 77 -203 79q-57 0 -105 -19q-49 -18 -87 -55q-33 37 -82 56q-48 18 -108 18q-104 -1 -176 -51q-73 -50 -91 -132l138 -30q11 45 45 69q35 25 84 25q44 0 68 -15q23 -14 23 -40q-22 -52 -175 -64q-154 -13 -176 -165q1 -71 55 -113
q54 -43 149 -44q75 0 130 23q56 22 93 67q39 -46 97 -68q57 -22 129 -22q76 0 137 27q62 27 111 81l-90 92q-38 -42 -76 -61q-39 -19 -84 -19q-66 1 -105 30q-40 30 -44 83h423v42zM540 322q6 48 44 76q38 27 97 27q56 -1 94 -28q37 -27 43 -75h-278zM399 195
q-1 -38 -42 -63q-40 -25 -103 -26q-40 0 -61 11q-20 11 -20 35q11 52 99 62q87 9 125 47h2v-66z" />
    <glyph glyph-name="ccedilla" unicode="&#xe7;" horiz-adv-x="618" 
d="M322 115q-65 1 -104 42q-40 40 -41 108q1 68 41 108q39 41 104 42q52 -1 86 -26q34 -26 48 -70l138 40q-25 85 -97 135t-175 51q-127 -2 -209 -80q-81 -77 -84 -200q2 -110 69 -184t175 -92l-59 -96l59 -25q25 19 55 19q21 0 34 -8t13 -22q0 -16 -13 -25q-12 -10 -35 -10
q-19 0 -36 6q-17 7 -36 20l-47 -67q27 -19 59 -29q32 -11 65 -11q61 1 96 30q34 30 35 81q-1 44 -31 71q-31 26 -82 27q-15 0 -29 -3l26 39q93 7 159 56q65 49 88 129l-138 40q-16 -47 -49 -71q-33 -25 -85 -25v0z" />
    <glyph glyph-name="egrave" unicode="&#xe8;" horiz-adv-x="634" 
d="M271 605h117l-101 138h-153zM326 -15q85 0 147 28t107 79l-92 92q-37 -40 -76 -59q-38 -20 -87 -20q-67 1 -106 31q-40 30 -44 82h430v42q-1 122 -77 202t-211 83q-128 -2 -207 -79t-81 -202q1 -128 79 -202q77 -75 218 -77v0zM177 322q7 47 45 75q37 27 98 28
q60 -1 98 -28q37 -28 43 -75h-284z" />
    <glyph glyph-name="eacute" unicode="&#xe9;" horiz-adv-x="634" 
d="M241 605h118l136 138h-153zM326 -15q85 0 147 28t107 79l-92 92q-37 -40 -76 -59q-38 -20 -87 -20q-67 1 -106 31q-40 30 -44 82h430v42q-1 122 -77 202t-211 83q-128 -2 -207 -79t-81 -202q1 -128 79 -202q77 -75 218 -77v0zM177 322q7 47 45 75q37 27 98 28
q60 -1 98 -28q37 -28 43 -75h-284z" />
    <glyph glyph-name="ecircumflex" unicode="&#xea;" horiz-adv-x="634" 
d="M317 674l82 -89l70 63l-78 82h-148l-78 -82l69 -63zM605 260q-1 122 -77 202t-211 83q-128 -2 -207 -79t-81 -202q1 -128 79 -202q77 -75 218 -77q85 0 147 28t107 79l-92 92q-37 -40 -76 -59q-38 -20 -87 -20q-67 1 -106 31q-40 30 -44 82h430v42zM177 322q7 47 45 75
q37 27 98 28q60 -1 98 -28q37 -28 43 -75h-284z" />
    <glyph glyph-name="edieresis" unicode="&#xeb;" horiz-adv-x="634" 
d="M143 595h130v128h-130v-128zM360 595h130v128h-130v-128zM326 -15q85 0 147 28t107 79l-92 92q-37 -40 -76 -59q-38 -20 -87 -20q-67 1 -106 31q-40 30 -44 82h430v42q-1 122 -77 202t-211 83q-128 -2 -207 -79t-81 -202q1 -128 79 -202q77 -75 218 -77v0zM177 322
q7 47 45 75q37 27 98 28q60 -1 98 -28q37 -28 43 -75h-284z" />
    <glyph glyph-name="igrave" unicode="&#xec;" horiz-adv-x="247" 
d="M77 590h117l-101 138h-153zM49 0h148v530h-148v-530z" />
    <glyph glyph-name="iacute" unicode="&#xed;" horiz-adv-x="247" 
d="M47 590h118l136 138h-153zM49 0h148v530h-148v-530z" />
    <glyph glyph-name="icircumflex" unicode="&#xee;" horiz-adv-x="247" 
d="M197 715h-148l-78 -82l69 -63l83 89l82 -89l70 63zM49 0h148v530h-148v-530z" />
    <glyph glyph-name="idieresis" unicode="&#xef;" horiz-adv-x="247" 
d="M-40 580h130v128h-130v-128zM156 580h131v128h-131v-128zM49 0h148v530h-148v-530z" />
    <glyph glyph-name="eth" unicode="&#xf0;" horiz-adv-x="657" 
d="M468 662l108 31l-18 56l-133 -38q-30 33 -64 64h-151v-2q62 -51 105 -94l-110 -32l18 -57l139 41q29 -32 51 -63t39 -62h-2q-26 19 -60 29t-77 10q-125 -2 -203 -80q-79 -77 -81 -200q3 -124 85 -201t213 -79q135 2 217 81t84 211q-1 97 -43 195q-43 99 -117 190v0z
M328 115q-68 1 -109 42q-41 40 -42 108q1 68 42 108q41 41 109 42q68 -1 109 -42q41 -40 42 -108q-1 -68 -42 -108q-41 -41 -109 -42v0z" />
    <glyph glyph-name="ntilde" unicode="&#xf1;" horiz-adv-x="672" 
d="M433 600q49 0 80 30q30 30 34 87h-74q-8 -33 -43 -33q-32 2 -68 19q-37 17 -87 19q-51 0 -81 -31q-30 -30 -34 -86h74q4 18 15 27q11 8 28 8q32 -2 69 -20q37 -17 87 -20v0zM50 0h148v283q1 59 40 94t104 36q65 -1 101 -35t37 -95v-283h148v302q-2 110 -70 176
q-68 65 -184 67q-53 0 -99 -17q-46 -16 -80 -48h-2v50h-143v-530z" />
    <glyph glyph-name="ograve" unicode="&#xf2;" horiz-adv-x="657" 
d="M282 605h117l-101 138h-153zM328 -15q134 3 215 81q82 78 84 199q-2 121 -84 199q-81 78 -215 81q-133 -3 -215 -81t-84 -199q2 -121 84 -199t215 -81v0zM328 115q-70 1 -110 43q-40 41 -41 107q1 66 41 107q40 42 110 43q70 -1 110 -43q40 -41 41 -107q-1 -66 -41 -107
q-40 -42 -110 -43v0z" />
    <glyph glyph-name="oacute" unicode="&#xf3;" horiz-adv-x="657" 
d="M252 605h118l136 138h-153zM328 -15q134 3 215 81q82 78 84 199q-2 121 -84 199q-81 78 -215 81q-133 -3 -215 -81t-84 -199q2 -121 84 -199t215 -81v0zM328 115q-70 1 -110 43q-40 41 -41 107q1 66 41 107q40 42 110 43q70 -1 110 -43q40 -41 41 -107q-1 -66 -41 -107
q-40 -42 -110 -43v0z" />
    <glyph glyph-name="ocircumflex" unicode="&#xf4;" horiz-adv-x="657" 
d="M328 674l82 -89l70 63l-78 82h-148l-78 -82l69 -63zM328 545q-133 -3 -215 -81t-84 -199q2 -121 84 -199t215 -81q134 3 215 81q82 78 84 199q-2 121 -84 199q-81 78 -215 81v0zM328 115q-70 1 -110 43q-40 41 -41 107q1 66 41 107q40 42 110 43q70 -1 110 -43
q40 -41 41 -107q-1 -66 -41 -107q-40 -42 -110 -43v0z" />
    <glyph glyph-name="otilde" unicode="&#xf5;" horiz-adv-x="657" 
d="M408 600q49 0 80 30q30 30 34 87h-74q-8 -33 -43 -33q-32 2 -68 19q-37 17 -87 19q-51 0 -81 -31q-30 -30 -34 -86h74q4 18 15 27q11 8 28 8q32 -2 69 -20q37 -17 87 -20v0zM328 -15q134 3 215 81q82 78 84 199q-2 121 -84 199q-81 78 -215 81q-133 -3 -215 -81t-84 -199
q2 -121 84 -199t215 -81v0zM328 115q-70 1 -110 43q-40 41 -41 107q1 66 41 107q40 42 110 43q70 -1 110 -43q40 -41 41 -107q-1 -66 -41 -107q-40 -42 -110 -43v0z" />
    <glyph glyph-name="odieresis" unicode="&#xf6;" horiz-adv-x="657" 
d="M154 595h130v128h-130v-128zM371 595h130v128h-130v-128zM328 -15q134 3 215 81q82 78 84 199q-2 121 -84 199q-81 78 -215 81q-133 -3 -215 -81t-84 -199q2 -121 84 -199t215 -81v0zM328 115q-70 1 -110 43q-40 41 -41 107q1 66 41 107q40 42 110 43q70 -1 110 -43
q40 -41 41 -107q-1 -66 -41 -107q-40 -42 -110 -43v0z" />
    <glyph glyph-name="divide" unicode="&#xf7;" horiz-adv-x="559" 
d="M279 484q43 1 70 28q27 28 28 69q-1 43 -28 70t-70 28q-41 -1 -69 -28q-27 -27 -28 -70q1 -41 28 -69q28 -27 69 -28v0zM49 306h461v116h-461v-116zM279 44q43 1 70 28t28 69q-1 42 -28 70q-27 27 -70 28q-41 -1 -69 -28q-27 -28 -28 -70q1 -42 28 -69q28 -27 69 -28v0z
" />
    <glyph glyph-name="oslash" unicode="&#xf8;" horiz-adv-x="657" 
d="M562 445l44 44l-50 51l-48 -47q-37 25 -82 38q-45 14 -98 14q-133 -3 -215 -81t-84 -199q0 -53 18 -99q17 -46 49 -83l-44 -44l51 -50l47 47q37 -24 82 -37q45 -14 96 -14q134 3 216 81t84 199q0 52 -17 98t-49 82v0zM172 265q1 68 42 111q42 43 114 44q25 0 46 -6
q22 -5 39 -16l-219 -218q-11 18 -16 40q-6 21 -6 45v0zM328 110q-48 0 -83 20l219 218q21 -36 21 -83q-1 -68 -43 -111t-114 -44v0z" />
    <glyph glyph-name="ugrave" unicode="&#xf9;" horiz-adv-x="654" 
d="M276 590h117l-101 138h-153zM280 -15q56 0 101 17q45 16 78 48h2v-50h143v530h-148v-281q-1 -58 -38 -93q-38 -36 -100 -37q-64 0 -97 34q-33 33 -33 96v281h-148v-303q1 -116 63 -178q63 -63 177 -64v0z" />
    <glyph glyph-name="uacute" unicode="&#xfa;" horiz-adv-x="654" 
d="M246 590h118l136 138h-153zM280 -15q56 0 101 17q45 16 78 48h2v-50h143v530h-148v-281q-1 -58 -38 -93q-38 -36 -100 -37q-64 0 -97 34q-33 33 -33 96v281h-148v-303q1 -116 63 -178q63 -63 177 -64v0z" />
    <glyph glyph-name="ucircumflex" unicode="&#xfb;" horiz-adv-x="654" 
d="M322 659l82 -89l70 63l-78 82h-148l-78 -82l69 -63zM456 530v-281q-1 -58 -38 -93q-38 -36 -100 -37q-64 0 -97 34q-33 33 -33 96v281h-148v-303q1 -116 63 -178q63 -63 177 -64q56 0 101 17q45 16 78 48h2v-50h143v530h-148z" />
    <glyph glyph-name="udieresis" unicode="&#xfc;" horiz-adv-x="654" 
d="M148 580h130v128h-130v-128zM365 580h130v128h-130v-128zM280 -15q56 0 101 17q45 16 78 48h2v-50h143v530h-148v-281q-1 -58 -38 -93q-38 -36 -100 -37q-64 0 -97 34q-33 33 -33 96v281h-148v-303q1 -116 63 -178q63 -63 177 -64v0z" />
    <glyph glyph-name="yacute" unicode="&#xfd;" horiz-adv-x="649" 
d="M249 590h118l136 138h-153zM119 -225h163l367 755h-164l-159 -346h-2l-161 346h-163l245 -501z" />
    <glyph glyph-name="thorn" unicode="&#xfe;" horiz-adv-x="669" 
d="M365 545q-50 0 -93 -14t-74 -43v243h-148v-956h148v266h2q27 -25 71 -40q45 -16 95 -16q120 3 196 80q76 78 78 200q-2 123 -79 200q-76 78 -196 80v0zM342 115q-61 1 -102 35q-40 33 -42 82v68q2 48 43 81t100 34q69 -1 109 -41q41 -41 42 -109q-1 -68 -42 -108
q-41 -41 -108 -42v0z" />
    <glyph glyph-name="ydieresis" unicode="&#xff;" horiz-adv-x="649" 
d="M151 580h130v128h-130v-128zM368 580h130v128h-130v-128zM119 -225h163l367 755h-164l-159 -346h-2l-161 346h-163l245 -501z" />
    <glyph glyph-name="Amacron" unicode="&#x100;" horiz-adv-x="763" 
d="M556 847h-349v-87h349v87zM603 0h166l-316 700h-143l-315 -700h165l46 108h351zM263 242l118 279h2l118 -279h-238z" />
    <glyph glyph-name="amacron" unicode="&#x101;" horiz-adv-x="593" 
d="M122 605h349v87h-349v-87zM234 -15q60 0 107 20q47 19 72 53h2v-58h133v337q-1 98 -67 152q-67 55 -184 56q-105 -1 -178 -51q-72 -50 -90 -134l140 -29q10 44 45 69q35 26 87 26q43 0 68 -15t26 -41q1 -19 -26 -31q-27 -13 -100 -23q-125 -17 -180 -58q-54 -42 -53 -115
q1 -72 55 -114q53 -43 143 -44v0zM256 107q-42 0 -62 11t-20 35q-1 23 26 38q28 14 92 26q53 9 79 19q25 10 34 24h2v-63q-1 -39 -43 -64t-108 -26v0z" />
    <glyph glyph-name="Abreve" unicode="&#x102;" horiz-adv-x="763" 
d="M383 750q70 1 114 37q43 37 51 102h-78q-7 -23 -30 -37q-23 -13 -57 -13t-57 13q-23 14 -31 37h-77q8 -65 51 -102q44 -36 114 -37v0zM603 0h166l-316 700h-143l-315 -700h165l46 108h351zM263 242l118 279h2l118 -279h-238z" />
    <glyph glyph-name="abreve" unicode="&#x103;" horiz-adv-x="593" 
d="M298 595q70 1 114 37q43 37 51 102h-78q-7 -23 -30 -37q-23 -13 -57 -13t-57 13q-23 14 -31 37h-77q8 -65 51 -102q44 -36 114 -37v0zM234 -15q60 0 107 20q47 19 72 53h2v-58h133v337q-1 98 -67 152q-67 55 -184 56q-105 -1 -178 -51q-72 -50 -90 -134l140 -29
q10 44 45 69q35 26 87 26q43 0 68 -15t26 -41q1 -19 -26 -31q-27 -13 -100 -23q-125 -17 -180 -58q-54 -42 -53 -115q1 -72 55 -114q53 -43 143 -44v0zM256 107q-42 0 -62 11t-20 35q-1 23 26 38q28 14 92 26q53 9 79 19q25 10 34 24h2v-63q-1 -39 -43 -64t-108 -26v0z" />
    <glyph glyph-name="Aogonek" unicode="&#x104;" horiz-adv-x="763" 
d="M741 -103q-14 -9 -28 -13q-14 -5 -26 -5q-29 0 -29 28q0 23 20 47q19 24 53 46h38l-316 700h-143l-315 -700h165l46 108h351l46 -108h43q-42 -28 -62 -58q-21 -31 -21 -65q1 -43 29 -66t78 -23q29 0 56 7q26 7 52 21zM263 242l118 279h2l118 -279h-238z" />
    <glyph glyph-name="aogonek" unicode="&#x105;" horiz-adv-x="593" 
d="M539 -103q-14 -9 -28 -13q-14 -5 -26 -5q-29 0 -29 28q0 23 20 47q19 24 53 46h19v337q-1 98 -67 152q-67 55 -184 56q-105 -1 -178 -51q-72 -50 -90 -134l140 -29q10 44 45 69q35 26 87 26q43 0 68 -15t26 -41q1 -19 -26 -31q-27 -13 -100 -23q-125 -17 -180 -58
q-54 -42 -53 -115q1 -72 55 -114q53 -43 143 -44q60 0 107 20q47 19 72 53h2v-58h29q-42 -28 -62 -58q-21 -31 -21 -65q1 -43 29 -66t78 -23q29 0 56 7q26 7 52 21zM407 197q-1 -39 -43 -64t-108 -26q-42 0 -62 11t-20 35q-1 23 26 38q28 14 92 26q53 9 79 19q25 10 34 24h2
v-63z" />
    <glyph glyph-name="Cacute" unicode="&#x106;" horiz-adv-x="750" 
d="M321 775h118l136 138h-153zM397 -15q132 1 221 69q89 67 113 189l-145 34q-15 -76 -65 -117t-124 -41q-97 2 -155 64q-59 63 -60 167q1 104 60 167q58 62 155 64q71 0 119 -38q49 -38 68 -107l144 36q-27 114 -115 178t-216 65q-163 -3 -264 -103q-101 -99 -104 -262
q3 -163 104 -262q101 -100 264 -103v0z" />
    <glyph glyph-name="cacute" unicode="&#x107;" horiz-adv-x="618" 
d="M246 605h118l136 138h-153zM322 -15q103 1 175 51t97 135l-138 40q-16 -47 -49 -71q-33 -25 -85 -25q-65 1 -104 42q-40 40 -41 108q1 68 41 108q39 41 104 42q52 -1 86 -26q34 -26 48 -70l138 40q-25 85 -97 135t-175 51q-127 -2 -209 -80q-81 -77 -84 -200
q3 -122 84 -200q82 -77 209 -80v0z" />
    <glyph glyph-name="Ccircumflex" unicode="&#x108;" horiz-adv-x="750" 
d="M397 844l82 -89l70 63l-78 82h-148l-78 -82l69 -63zM586 277q-15 -76 -65 -117t-124 -41q-97 2 -155 64q-59 63 -60 167q1 104 60 167q58 62 155 64q71 0 119 -38q49 -38 68 -107l144 36q-27 114 -115 178t-216 65q-163 -3 -264 -103q-101 -99 -104 -262q3 -163 104 -262
q101 -100 264 -103q132 1 221 69q89 67 113 189z" />
    <glyph glyph-name="ccircumflex" unicode="&#x109;" horiz-adv-x="618" 
d="M322 674l82 -89l70 63l-78 82h-148l-78 -82l69 -63zM322 115q-65 1 -104 42q-40 40 -41 108q1 68 41 108q39 41 104 42q52 -1 86 -26q34 -26 48 -70l138 40q-25 85 -97 135t-175 51q-127 -2 -209 -80q-81 -77 -84 -200q3 -122 84 -200q82 -77 209 -80q103 1 175 51
t97 135l-138 40q-16 -47 -49 -71q-33 -25 -85 -25v0z" />
    <glyph glyph-name="Cdotaccent" unicode="&#x10a;" horiz-adv-x="750" 
d="M332 775h129v127h-129v-127zM397 -15q132 1 221 69q89 67 113 189l-145 34q-15 -76 -65 -117t-124 -41q-97 2 -155 64q-59 63 -60 167q1 104 60 167q58 62 155 64q71 0 119 -38q49 -38 68 -107l144 36q-27 114 -115 178t-216 65q-163 -3 -264 -103q-101 -99 -104 -262
q3 -163 104 -262q101 -100 264 -103v0z" />
    <glyph glyph-name="cdotaccent" unicode="&#x10b;" horiz-adv-x="618" 
d="M257 605h129v127h-129v-127zM322 -15q103 1 175 51t97 135l-138 40q-16 -47 -49 -71q-33 -25 -85 -25q-65 1 -104 42q-40 40 -41 108q1 68 41 108q39 41 104 42q52 -1 86 -26q34 -26 48 -70l138 40q-25 85 -97 135t-175 51q-127 -2 -209 -80q-81 -77 -84 -200
q3 -122 84 -200q82 -77 209 -80v0z" />
    <glyph glyph-name="Ccaron" unicode="&#x10c;" horiz-adv-x="750" 
d="M471 765l78 82l-70 63l-82 -88l-83 88l-69 -63l78 -82h148zM586 277q-15 -76 -65 -117t-124 -41q-97 2 -155 64q-59 63 -60 167q1 104 60 167q58 62 155 64q71 0 119 -38q49 -38 68 -107l144 36q-27 114 -115 178t-216 65q-163 -3 -264 -103q-101 -99 -104 -262
q3 -163 104 -262q101 -100 264 -103q132 1 221 69q89 67 113 189z" />
    <glyph glyph-name="ccaron" unicode="&#x10d;" horiz-adv-x="618" 
d="M396 595l78 82l-70 63l-82 -88l-83 88l-69 -63l78 -82h148zM322 115q-65 1 -104 42q-40 40 -41 108q1 68 41 108q39 41 104 42q52 -1 86 -26q34 -26 48 -70l138 40q-25 85 -97 135t-175 51q-127 -2 -209 -80q-81 -77 -84 -200q3 -122 84 -200q82 -77 209 -80
q103 1 175 51t97 135l-138 40q-16 -47 -49 -71q-33 -25 -85 -25v0z" />
    <glyph glyph-name="Dcaron" unicode="&#x10e;" horiz-adv-x="739" 
d="M415 750l78 82l-70 63l-82 -88l-83 88l-69 -63l78 -82h148zM356 700h-287v-700h285q161 -1 258 85q96 86 98 265q-2 174 -97 262q-96 88 -257 88v0zM351 134h-129v432h129q101 0 153 -52q53 -53 53 -164q0 -117 -53 -167t-153 -49v0z" />
    <glyph glyph-name="dcaron" unicode="&#x10f;" horiz-adv-x="817" 
d="M316 -15q58 0 103 17q46 17 76 50h2v-52h137v730h-148v-242h-2q-31 28 -75 42q-44 15 -97 15q-124 -2 -202 -80q-78 -77 -81 -200q2 -125 81 -201q78 -77 206 -79v0zM689 491q63 7 96 40q32 34 32 94v105h-133v-120h47q0 -25 -9 -38q-9 -14 -33 -21v-60zM335 116
q-73 1 -115 41t-43 108q1 68 44 108q42 41 114 42q63 -1 106 -34q43 -32 45 -81v-67q-2 -50 -44 -83t-107 -34v0z" />
    <glyph glyph-name="Dcroat" unicode="&#x110;" horiz-adv-x="739" 
d="M356 700h-287v-290h-95v-122h95v-288h285q161 -1 258 85q96 86 98 265q-2 174 -97 262q-96 88 -257 88v0zM351 134h-129v154h182v122h-182v156h129q101 0 153 -52q53 -53 53 -164q0 -117 -53 -167t-153 -49v0z" />
    <glyph glyph-name="dcroat" unicode="&#x111;" horiz-adv-x="684" 
d="M675 675h-41v55h-148v-55h-226v-101h226v-86h-2q-31 28 -75 42q-44 15 -97 15q-124 -2 -202 -80q-78 -77 -81 -200q2 -125 81 -201q78 -77 206 -79q58 0 103 17q46 17 76 50h2v-52h137v574h41v101zM486 233q-2 -50 -44 -83t-107 -34q-73 1 -115 41t-43 108q1 68 44 108
q42 41 114 42q63 -1 106 -34q43 -32 45 -81v-67z" />
    <glyph glyph-name="Emacron" unicode="&#x112;" horiz-adv-x="637" 
d="M161 760h349v87h-349v-87zM69 0h528v134h-375v158h340v127h-340v147h376v134h-529v-700z" />
    <glyph glyph-name="emacron" unicode="&#x113;" horiz-adv-x="634" 
d="M142 605h349v87h-349v-87zM326 -15q85 0 147 28t107 79l-92 92q-37 -40 -76 -59q-38 -20 -87 -20q-67 1 -106 31q-40 30 -44 82h430v42q-1 122 -77 202t-211 83q-128 -2 -207 -79t-81 -202q1 -128 79 -202q77 -75 218 -77v0zM177 322q7 47 45 75q37 27 98 28
q60 -1 98 -28q37 -28 43 -75h-284z" />
    <glyph glyph-name="Ebreve" unicode="&#x114;" horiz-adv-x="637" 
d="M337 750q70 1 114 37q43 37 51 102h-78q-7 -23 -30 -37q-23 -13 -57 -13t-57 13q-23 14 -31 37h-77q8 -65 51 -102q44 -36 114 -37v0zM69 0h528v134h-375v158h340v127h-340v147h376v134h-529v-700z" />
    <glyph glyph-name="ebreve" unicode="&#x115;" horiz-adv-x="634" 
d="M318 595q70 1 114 37q43 37 51 102h-78q-7 -23 -30 -37q-23 -13 -57 -13t-57 13q-23 14 -31 37h-77q8 -65 51 -102q44 -36 114 -37v0zM326 -15q85 0 147 28t107 79l-92 92q-37 -40 -76 -59q-38 -20 -87 -20q-67 1 -106 31q-40 30 -44 82h430v42q-1 122 -77 202t-211 83
q-128 -2 -207 -79t-81 -202q1 -128 79 -202q77 -75 218 -77v0zM177 322q7 47 45 75q37 27 98 28q60 -1 98 -28q37 -28 43 -75h-284z" />
    <glyph glyph-name="Edotaccent" unicode="&#x116;" horiz-adv-x="637" 
d="M271 760h129v127h-129v-127zM69 0h528v134h-375v158h340v127h-340v147h376v134h-529v-700z" />
    <glyph glyph-name="edotaccent" unicode="&#x117;" horiz-adv-x="634" 
d="M252 605h129v127h-129v-127zM326 -15q85 0 147 28t107 79l-92 92q-37 -40 -76 -59q-38 -20 -87 -20q-67 1 -106 31q-40 30 -44 82h430v42q-1 122 -77 202t-211 83q-128 -2 -207 -79t-81 -202q1 -128 79 -202q77 -75 218 -77v0zM177 322q7 47 45 75q37 27 98 28
q60 -1 98 -28q37 -28 43 -75h-284z" />
    <glyph glyph-name="Eogonek" unicode="&#x118;" horiz-adv-x="637" 
d="M598 566v134h-529v-700h397q-42 -28 -62 -58q-21 -31 -21 -65q1 -43 29 -66t78 -23q29 0 56 7q26 7 52 21l-37 81q-14 -9 -28 -13q-14 -5 -26 -5q-29 0 -29 28q0 23 20 47q19 24 53 46h46v134h-375v158h340v127h-340v147h376z" />
    <glyph glyph-name="eogonek" unicode="&#x119;" horiz-adv-x="634" 
d="M605 260q-1 122 -77 202t-211 83q-128 -2 -207 -79t-81 -202q1 -128 79 -202q77 -75 218 -77h5q-31 -25 -47 -51q-15 -27 -15 -57q1 -43 29 -66t78 -23q29 0 56 7q26 7 52 21l-37 81q-14 -9 -28 -13q-14 -5 -26 -5q-29 0 -29 28q0 23 20 47q19 24 53 46q43 13 79 36
q35 24 64 56l-92 92q-37 -40 -76 -59q-38 -20 -87 -20q-67 1 -106 31q-40 30 -44 82h430v42zM177 322q7 47 45 75q37 27 98 28q60 -1 98 -28q37 -28 43 -75h-284z" />
    <glyph glyph-name="Ecaron" unicode="&#x11a;" horiz-adv-x="637" 
d="M410 750l78 82l-70 63l-82 -88l-83 88l-69 -63l78 -82h148zM598 566v134h-529v-700h528v134h-375v158h340v127h-340v147h376z" />
    <glyph glyph-name="ecaron" unicode="&#x11b;" horiz-adv-x="634" 
d="M391 595l78 82l-70 63l-82 -88l-83 88l-69 -63l78 -82h148zM605 260q-1 122 -77 202t-211 83q-128 -2 -207 -79t-81 -202q1 -128 79 -202q77 -75 218 -77q85 0 147 28t107 79l-92 92q-37 -40 -76 -59q-38 -20 -87 -20q-67 1 -106 31q-40 30 -44 82h430v42zM177 322
q7 47 45 75q37 27 98 28q60 -1 98 -28q37 -28 43 -75h-284z" />
    <glyph glyph-name="Gcircumflex" unicode="&#x11c;" horiz-adv-x="749" 
d="M391 844l82 -89l70 63l-78 82h-148l-78 -82l69 -63zM402 372v-119h169q-4 -63 -51 -98q-48 -35 -129 -36q-94 2 -151 64t-58 167q1 105 58 167q57 63 151 64q69 -1 114 -36q46 -36 64 -100l143 37q-26 106 -111 169q-84 63 -210 64q-161 -3 -260 -103q-99 -99 -102 -262
q3 -163 102 -262q99 -100 260 -103q154 1 241 80t88 221v86h-318z" />
    <glyph glyph-name="gcircumflex" unicode="&#x11d;" horiz-adv-x="673" 
d="M319 670l82 -89l70 63l-78 82h-148l-78 -82l69 -63zM487 530v-52h-2q-29 30 -74 46t-102 16q-123 -3 -200 -79q-78 -77 -80 -196q3 -123 81 -200q79 -77 204 -79q55 0 99 17q44 16 72 47h2v-38q-1 -55 -41 -89q-40 -35 -103 -36q-57 -1 -98 19q-40 20 -80 68l-106 -88
q48 -62 120 -94t164 -32q128 2 206 71t80 183v516h-142zM481 233q-1 -50 -43 -83t-107 -34q-72 1 -113 40q-40 39 -41 109q1 66 44 105q42 39 116 40q60 -1 101 -35q41 -33 43 -80v-62z" />
    <glyph glyph-name="Gbreve" unicode="&#x11e;" horiz-adv-x="749" 
d="M392 765q70 1 114 37q43 37 51 102h-78q-7 -23 -30 -37q-23 -13 -57 -13t-57 13q-23 14 -31 37h-77q8 -65 51 -102q44 -36 114 -37v0zM391 -15q154 1 241 80t88 221v86h-318v-119h169q-4 -63 -51 -98q-48 -35 -129 -36q-94 2 -151 64t-58 167q1 105 58 167q57 63 151 64
q69 -1 114 -36q46 -36 64 -100l143 37q-26 106 -111 169q-84 63 -210 64q-161 -3 -260 -103q-99 -99 -102 -262q3 -163 102 -262q99 -100 260 -103v0z" />
    <glyph glyph-name="gbreve" unicode="&#x11f;" horiz-adv-x="673" 
d="M321 591q70 1 114 37q43 37 51 102h-78q-7 -23 -30 -37q-23 -13 -57 -13t-57 13q-23 14 -31 37h-77q8 -65 51 -102q44 -36 114 -37v0zM343 -240q128 2 206 71t80 183v516h-142v-52h-2q-29 30 -74 46t-102 16q-123 -3 -200 -79q-78 -77 -80 -196q3 -123 81 -200
q79 -77 204 -79q55 0 99 17q44 16 72 47h2v-38q-1 -55 -41 -89q-40 -35 -103 -36q-57 -1 -98 19q-40 20 -80 68l-106 -88q48 -62 120 -94t164 -32v0zM331 116q-72 1 -113 40q-40 39 -41 109q1 66 44 105q42 39 116 40q60 -1 101 -35q41 -33 43 -80v-62q-1 -50 -43 -83
t-107 -34v0z" />
    <glyph glyph-name="Gdotaccent" unicode="&#x120;" horiz-adv-x="749" 
d="M326 775h129v127h-129v-127zM391 -15q154 1 241 80t88 221v86h-318v-119h169q-4 -63 -51 -98q-48 -35 -129 -36q-94 2 -151 64t-58 167q1 105 58 167q57 63 151 64q69 -1 114 -36q46 -36 64 -100l143 37q-26 106 -111 169q-84 63 -210 64q-161 -3 -260 -103
q-99 -99 -102 -262q3 -163 102 -262q99 -100 260 -103v0z" />
    <glyph glyph-name="gdotaccent" unicode="&#x121;" horiz-adv-x="673" 
d="M254 600h129v127h-129v-127zM343 -240q128 2 206 71t80 183v516h-142v-52h-2q-29 30 -74 46t-102 16q-123 -3 -200 -79q-78 -77 -80 -196q3 -123 81 -200q79 -77 204 -79q55 0 99 17q44 16 72 47h2v-38q-1 -55 -41 -89q-40 -35 -103 -36q-57 -1 -98 19q-40 20 -80 68
l-106 -88q48 -62 120 -94t164 -32v0zM331 116q-72 1 -113 40q-40 39 -41 109q1 66 44 105q42 39 116 40q60 -1 101 -35q41 -33 43 -80v-62q-1 -50 -43 -83t-107 -34v0z" />
    <glyph glyph-name="uni0122" unicode="&#x122;" horiz-adv-x="749" 
d="M391 -15q154 1 241 80t88 221v86h-318v-119h169q-4 -63 -51 -98q-48 -35 -129 -36q-94 2 -151 64t-58 167q1 105 58 167q57 63 151 64q69 -1 114 -36q46 -36 64 -100l143 37q-26 106 -111 169q-84 63 -210 64q-161 -3 -260 -103q-99 -99 -102 -262q3 -163 102 -262
q99 -100 260 -103v0zM330 -304q63 7 96 40q32 34 32 94v105h-133v-120h47q0 -25 -9 -38q-9 -14 -33 -21v-60z" />
    <glyph glyph-name="uni0123" unicode="&#x123;" horiz-adv-x="673" 
d="M387 836q-71 -7 -106 -40q-36 -33 -36 -91v-104h147v118h-53q0 24 10 38q11 13 38 20v59zM343 -240q128 2 206 71t80 183v516h-142v-52h-2q-29 30 -74 46t-102 16q-123 -3 -200 -79q-78 -77 -80 -196q3 -123 81 -200q79 -77 204 -79q55 0 99 17q44 16 72 47h2v-38
q-1 -55 -41 -89q-40 -35 -103 -36q-57 -1 -98 19q-40 20 -80 68l-106 -88q48 -62 120 -94t164 -32v0zM331 116q-72 1 -113 40q-40 39 -41 109q1 66 44 105q42 39 116 40q60 -1 101 -35q41 -33 43 -80v-62q-1 -50 -43 -83t-107 -34v0z" />
    <glyph glyph-name="Hcircumflex" unicode="&#x124;" horiz-adv-x="765" 
d="M383 829l82 -89l70 63l-78 82h-148l-78 -82l69 -63zM542 700v-274h-320v274h-153v-700h153v287h320v-287h153v700h-153z" />
    <glyph glyph-name="hcircumflex" unicode="&#x125;" horiz-adv-x="672" 
d="M356 829l82 -89l70 63l-78 82h-148l-78 -82l69 -63zM374 545q-53 0 -97 -17q-44 -16 -77 -48h-2v250h-148v-730h148v283q1 59 40 94t104 36q65 -1 101 -35t37 -95v-283h148v303q-2 109 -70 175q-68 65 -184 67v0z" />
    <glyph glyph-name="Hbar" unicode="&#x126;" horiz-adv-x="765" 
d="M765 612h-70v88h-150v-88h-325v88h-151v-88h-70v-115h70v-497h151v292h325v-292h150v497h70v115zM545 420h-325v77h325v-77z" />
    <glyph glyph-name="hbar" unicode="&#x127;" horiz-adv-x="672" 
d="M374 545q-53 0 -97 -17q-44 -16 -77 -48h-2v94h212v101h-212v55h-148v-55h-55v-101h55v-574h148v283q1 59 40 94t104 36q65 -1 101 -35t37 -95v-283h148v303q-2 109 -70 175q-68 65 -184 67v0z" />
    <glyph glyph-name="Itilde" unicode="&#x128;" horiz-adv-x="292" 
d="M226 755q49 0 80 30q30 30 34 87h-74q-8 -33 -43 -33q-32 2 -68 19q-37 17 -87 19q-51 0 -81 -31q-30 -30 -34 -86h74q4 18 15 27q11 8 28 8q32 -2 69 -20q37 -17 87 -20v0zM69 0h153v700h-153v-700z" />
    <glyph glyph-name="itilde" unicode="&#x129;" horiz-adv-x="247" 
d="M203 585q49 0 80 30q30 30 34 87h-74q-8 -33 -43 -33q-32 2 -68 19q-37 17 -87 19q-51 0 -81 -31q-30 -30 -34 -86h74q4 18 15 27q11 8 28 8q32 -2 69 -20q37 -17 87 -20v0zM49 0h148v530h-148v-530z" />
    <glyph glyph-name="Imacron" unicode="&#x12a;" horiz-adv-x="292" 
d="M-29 760h349v87h-349v-87zM69 0h153v700h-153v-700z" />
    <glyph glyph-name="imacron" unicode="&#x12b;" horiz-adv-x="247" 
d="M-52 590h349v87h-349v-87zM49 0h148v530h-148v-530z" />
    <glyph glyph-name="Ibreve" unicode="&#x12c;" horiz-adv-x="292" 
d="M147 750q70 1 114 37q43 37 51 102h-78q-7 -23 -30 -37q-23 -13 -57 -13t-57 13q-23 14 -31 37h-77q8 -65 51 -102q44 -36 114 -37v0zM69 0h153v700h-153v-700z" />
    <glyph glyph-name="ibreve" unicode="&#x12d;" horiz-adv-x="247" 
d="M124 580q70 1 114 37q43 37 51 102h-78q-7 -23 -30 -37q-23 -13 -57 -13t-57 13q-23 14 -31 37h-77q8 -65 51 -102q44 -36 114 -37v0zM49 0h148v530h-148v-530z" />
    <glyph glyph-name="Iogonek" unicode="&#x12e;" horiz-adv-x="292" 
d="M202 -103q-14 -9 -28 -13q-14 -5 -26 -5q-29 0 -29 28q0 23 20 47q19 24 53 46h30v700h-153v-700h38q-42 -28 -62 -58q-21 -31 -21 -65q1 -43 29 -66t78 -23q29 0 56 7q26 7 52 21z" />
    <glyph glyph-name="iogonek" unicode="&#x12f;" horiz-adv-x="247" 
d="M199 765h-153v-148h153v148zM178 -103q-14 -9 -28 -13q-14 -5 -26 -5q-29 0 -29 28q0 23 20 47q19 24 53 46h29v530h-148v-530h34q-42 -28 -62 -58q-21 -31 -21 -65q1 -43 29 -66t78 -23q29 0 56 7q26 7 52 21z" />
    <glyph glyph-name="Idotaccent" unicode="&#x130;" horiz-adv-x="292" 
d="M81 760h129v127h-129v-127zM69 0h153v700h-153v-700z" />
    <glyph glyph-name="dotlessi" unicode="&#x131;" horiz-adv-x="247" 
d="M49 0h148v530h-148v-530z" />
    <glyph glyph-name="Jcircumflex" unicode="&#x134;" horiz-adv-x="641" 
d="M574 885h-148l-78 -82l69 -63l83 89l82 -89l70 63zM424 279q0 -77 -32 -118q-32 -42 -91 -42q-60 0 -93 34q-32 34 -40 106l-148 -20q10 -122 83 -187q73 -66 198 -67q123 1 198 74q76 73 78 204v437h-153v-421z" />
    <glyph glyph-name="jcircumflex" unicode="&#x135;" horiz-adv-x="254" 
d="M205 715h-148l-78 -82l69 -63l83 89l82 -89l70 63zM57 -17q0 -28 -13 -41t-45 -13h-80v-135h92q105 -1 150 44t44 143v549h-148v-547z" />
    <glyph glyph-name="uni0136" unicode="&#x136;" horiz-adv-x="718" 
d="M69 0h153v185l106 114h2l207 -299h186l-293 400l290 300h-209l-287 -308h-2v308h-153v-700zM316 -289q63 7 96 40q32 34 32 94v105h-133v-120h47q0 -25 -9 -38q-9 -14 -33 -21v-60z" />
    <glyph glyph-name="uni0137" unicode="&#x137;" horiz-adv-x="666" 
d="M50 0h148v141l98 83h2l177 -224h181l-259 314l249 216h-207l-239 -213h-2v413h-148v-730zM281 -289q63 7 96 40q32 34 32 94v105h-133v-120h47q0 -25 -9 -38q-9 -14 -33 -21v-60z" />
    <glyph glyph-name="kgreenlandic" unicode="&#x138;" horiz-adv-x="646" 
d="M50 0h147v141l93 83h2l165 -224h179l-246 314l237 216h-205l-223 -208h-2v208h-147v-530z" />
    <glyph glyph-name="Lacute" unicode="&#x139;" horiz-adv-x="611" 
d="M70 760h118l136 138h-153zM69 0h517v135h-364v565h-153v-700z" />
    <glyph glyph-name="lacute" unicode="&#x13a;" horiz-adv-x="247" 
d="M48 790h118l136 138h-153zM49 0h148v730h-148v-730z" />
    <glyph glyph-name="uni013B" unicode="&#x13b;" horiz-adv-x="611" 
d="M69 0h517v135h-364v565h-153v-700zM267 -289q63 7 96 40q32 34 32 94v105h-133v-120h47q0 -25 -9 -38q-9 -14 -33 -21v-60z" />
    <glyph glyph-name="uni013C" unicode="&#x13c;" horiz-adv-x="247" 
d="M49 0h148v730h-148v-730zM63 -289q63 7 96 40q32 34 32 94v105h-133v-120h47q0 -25 -9 -38q-9 -14 -33 -21v-60z" />
    <glyph glyph-name="Lcaron" unicode="&#x13d;" horiz-adv-x="602" 
d="M69 0h517v135h-364v565h-153v-700zM475 461q63 7 96 40q32 34 32 94v105h-133v-120h47q0 -25 -9 -38q-9 -14 -33 -21v-60z" />
    <glyph glyph-name="lcaron" unicode="&#x13e;" horiz-adv-x="380" 
d="M49 0h148v730h-148v-730zM252 491q63 7 96 40q32 34 32 94v105h-133v-120h47q0 -25 -9 -38q-9 -14 -33 -21v-60z" />
    <glyph glyph-name="Ldot" unicode="&#x13f;" horiz-adv-x="611" 
d="M69 0h517v135h-364v565h-153v-700zM354 329h165v160h-165v-160z" />
    <glyph glyph-name="ldot" unicode="&#x140;" horiz-adv-x="428" 
d="M49 0h148v730h-148v-730zM252 299h165v160h-165v-160z" />
    <glyph glyph-name="Lslash" unicode="&#x141;" horiz-adv-x="668" 
d="M298 135v202l199 185l-53 58l-146 -136v256h-153v-382l-145 -134l49 -52l96 88v-220h517v135h-364z" />
    <glyph glyph-name="lslash" unicode="&#x142;" horiz-adv-x="379" 
d="M399 534l-50 54l-85 -78v220h-148v-329l-136 -128l51 -54l85 80v-299h148v408z" />
    <glyph glyph-name="Nacute" unicode="&#x143;" horiz-adv-x="788" 
d="M319 760h118l136 138h-153zM69 0h153v486h2l329 -486h166v700h-153v-485h-2l-328 485h-167v-700z" />
    <glyph glyph-name="nacute" unicode="&#x144;" horiz-adv-x="672" 
d="M277 605h118l136 138h-153zM50 0h148v283q1 59 40 94t104 36q65 -1 101 -35t37 -95v-283h148v302q-2 110 -70 176q-68 65 -184 67q-53 0 -99 -17q-46 -16 -80 -48h-2v50h-143v-530z" />
    <glyph glyph-name="uni0145" unicode="&#x145;" horiz-adv-x="788" 
d="M69 0h153v486h2l329 -486h166v700h-153v-485h-2l-328 485h-167v-700zM344 -289q63 7 96 40q32 34 32 94v105h-133v-120h47q0 -25 -9 -38q-9 -14 -33 -21v-60z" />
    <glyph glyph-name="uni0146" unicode="&#x146;" horiz-adv-x="672" 
d="M50 0h148v283q1 59 40 94t104 36q65 -1 101 -35t37 -95v-283h148v302q-2 110 -70 176q-68 65 -184 67q-53 0 -99 -17q-46 -16 -80 -48h-2v50h-143v-530zM278 -289q63 7 96 40q32 34 32 94v105h-133v-120h47q0 -25 -9 -38q-9 -14 -33 -21v-60z" />
    <glyph glyph-name="Ncaron" unicode="&#x147;" horiz-adv-x="788" 
d="M469 750l78 82l-70 63l-82 -88l-83 88l-69 -63l78 -82h148zM566 700v-485h-2l-328 485h-167v-700h153v486h2l329 -486h166v700h-153z" />
    <glyph glyph-name="ncaron" unicode="&#x148;" horiz-adv-x="672" 
d="M427 595l78 82l-70 63l-82 -88l-83 88l-69 -63l78 -82h148zM374 545q-53 0 -99 -17q-46 -16 -80 -48h-2v50h-143v-530h148v283q1 59 40 94t104 36q65 -1 101 -35t37 -95v-283h148v302q-2 110 -70 176q-68 65 -184 67v0z" />
    <glyph glyph-name="Eng" unicode="&#x14a;" horiz-adv-x="788" 
d="M566 700v-463h-2l-346 463h-149v-700h153v471h2l352 -471v-23q0 -25 -11 -37q-11 -11 -36 -11h-76v-135h71q105 0 150 40q46 39 45 131v735h-153z" />
    <glyph glyph-name="eng" unicode="&#x14b;" horiz-adv-x="672" 
d="M374 545q-53 0 -99 -17q-46 -16 -80 -48h-2v50h-143v-530h148v283q1 59 40 94t104 36q65 -1 101 -35t37 -95v-53h-1v-253q0 -25 -11 -37q-11 -11 -35 -11h-70v-135h71q104 -1 150 39q45 40 44 132v337q-2 110 -70 176q-68 65 -184 67v0z" />
    <glyph glyph-name="Omacron" unicode="&#x14c;" horiz-adv-x="794" 
d="M222 775h349v87h-349v-87zM397 -15q163 3 264 103q101 99 104 262q-3 163 -104 262q-101 100 -264 103q-163 -3 -264 -103q-101 -99 -104 -262q3 -163 104 -262q101 -100 264 -103v0zM397 119q-97 2 -155 64q-59 62 -60 167q1 105 60 167q58 63 155 64q97 -1 156 -64
q58 -62 59 -167q-1 -105 -59 -167q-59 -62 -156 -64v0z" />
    <glyph glyph-name="omacron" unicode="&#x14d;" horiz-adv-x="657" 
d="M153 605h349v87h-349v-87zM328 -15q134 3 215 81q82 78 84 199q-2 121 -84 199q-81 78 -215 81q-133 -3 -215 -81t-84 -199q2 -121 84 -199t215 -81v0zM328 115q-70 1 -110 43q-40 41 -41 107q1 66 41 107q40 42 110 43q70 -1 110 -43q40 -41 41 -107q-1 -66 -41 -107
q-40 -42 -110 -43v0z" />
    <glyph glyph-name="Obreve" unicode="&#x14e;" horiz-adv-x="794" 
d="M398 765q70 1 114 37q43 37 51 102h-78q-7 -23 -30 -37q-23 -13 -57 -13t-57 13q-23 14 -31 37h-77q8 -65 51 -102q44 -36 114 -37v0zM397 -15q163 3 264 103q101 99 104 262q-3 163 -104 262q-101 100 -264 103q-163 -3 -264 -103q-101 -99 -104 -262q3 -163 104 -262
q101 -100 264 -103v0zM397 119q-97 2 -155 64q-59 62 -60 167q1 105 60 167q58 63 155 64q97 -1 156 -64q58 -62 59 -167q-1 -105 -59 -167q-59 -62 -156 -64v0z" />
    <glyph glyph-name="obreve" unicode="&#x14f;" horiz-adv-x="657" 
d="M329 595q70 1 114 37q43 37 51 102h-78q-7 -23 -30 -37q-23 -13 -57 -13t-57 13q-23 14 -31 37h-77q8 -65 51 -102q44 -36 114 -37v0zM328 -15q134 3 215 81q82 78 84 199q-2 121 -84 199q-81 78 -215 81q-133 -3 -215 -81t-84 -199q2 -121 84 -199t215 -81v0zM328 115
q-70 1 -110 43q-40 41 -41 107q1 66 41 107q40 42 110 43q70 -1 110 -43q40 -41 41 -107q-1 -66 -41 -107q-40 -42 -110 -43v0z" />
    <glyph glyph-name="Ohungarumlaut" unicode="&#x150;" horiz-adv-x="794" 
d="M209 775h113l135 138h-147zM417 775h112l136 138h-148zM397 -15q163 3 264 103q101 99 104 262q-3 163 -104 262q-101 100 -264 103q-163 -3 -264 -103q-101 -99 -104 -262q3 -163 104 -262q101 -100 264 -103v0zM397 119q-97 2 -155 64q-59 62 -60 167q1 105 60 167
q58 63 155 64q97 -1 156 -64q58 -62 59 -167q-1 -105 -59 -167q-59 -62 -156 -64v0z" />
    <glyph glyph-name="ohungarumlaut" unicode="&#x151;" horiz-adv-x="657" 
d="M140 605h113l135 138h-147zM348 605h112l136 138h-148zM328 -15q134 3 215 81q82 78 84 199q-2 121 -84 199q-81 78 -215 81q-133 -3 -215 -81t-84 -199q2 -121 84 -199t215 -81v0zM328 115q-70 1 -110 43q-40 41 -41 107q1 66 41 107q40 42 110 43q70 -1 110 -43
q40 -41 41 -107q-1 -66 -41 -107q-40 -42 -110 -43v0z" />
    <glyph glyph-name="OE" unicode="&#x152;" horiz-adv-x="1073" 
d="M378 -15q50 0 94 11q45 11 82 33h2v-29h477v132h-327v161h292v125h-292v150h327v132h-477v-29h-2q-37 22 -82 33q-44 11 -94 11q-156 -3 -251 -103q-95 -99 -98 -262q2 -163 95 -262q92 -100 254 -103v0zM391 116q-102 2 -157 65q-54 63 -55 169q1 106 58 169t154 64
q52 0 93 -16t72 -51v-332q-31 -36 -72 -52t-93 -16v0z" />
    <glyph glyph-name="oe" unicode="&#x153;" horiz-adv-x="1084" 
d="M1055 262q-2 121 -78 200q-77 80 -211 83q-68 0 -123 -24q-54 -24 -92 -67q-39 42 -95 67q-56 24 -126 24q-134 -3 -216 -81q-83 -78 -85 -199q2 -121 85 -199q82 -78 216 -81q69 0 124 24q56 23 94 64q37 -42 94 -65t131 -23q84 0 146 28t109 79l-91 94q-38 -40 -77 -59
q-39 -20 -87 -20q-67 1 -106 31q-39 29 -43 81h431v43zM626 321q7 47 44 75t98 29q59 -1 97 -29q37 -28 43 -75h-282zM330 114q-70 1 -110 43t-41 108q1 66 41 108t110 43q69 -1 109 -43t41 -108q-1 -66 -41 -108t-109 -43v0z" />
    <glyph glyph-name="Racute" unicode="&#x154;" horiz-adv-x="713" 
d="M531 898h-153l-101 -138h118zM511 261q84 19 130 75t47 141q-1 103 -68 163q-66 59 -182 60h-369v-700h153v253h124l162 -253h174l-171 259v2zM222 388v178h199q58 0 86 -21q28 -22 28 -66t-30 -68q-29 -23 -82 -23h-201z" />
    <glyph glyph-name="racute" unicode="&#x155;" horiz-adv-x="439" 
d="M126 590h118l136 138h-153zM50 0h148v242q1 82 34 122q34 40 94 40q21 0 39 -2q17 -3 38 -9l31 133q-22 7 -44 10q-21 4 -43 4q-48 0 -87 -15q-40 -16 -69 -46h-2v51h-139v-530z" />
    <glyph glyph-name="uni0156" unicode="&#x156;" horiz-adv-x="713" 
d="M511 261q84 19 130 75t47 141q-1 103 -68 163q-66 59 -182 60h-369v-700h153v253h124l162 -253h174l-171 259v2zM222 388v178h199q58 0 86 -21q28 -22 28 -66t-30 -68q-29 -23 -82 -23h-201zM297 -170h47q0 -25 -9 -38q-9 -14 -33 -21v-60q63 7 96 40q32 34 32 94v105
h-133v-120z" />
    <glyph glyph-name="uni0157" unicode="&#x157;" horiz-adv-x="439" 
d="M50 0h148v242q1 82 34 122q34 40 94 40q21 0 39 -2q17 -3 38 -9l31 133q-22 7 -44 10q-21 4 -43 4q-48 0 -87 -15q-40 -16 -69 -46h-2v51h-139v-530zM63 -289q63 7 96 40q32 34 32 94v105h-133v-120h47q0 -25 -9 -38q-9 -14 -33 -21v-60z" />
    <glyph glyph-name="Rcaron" unicode="&#x158;" horiz-adv-x="713" 
d="M427 750l78 82l-70 63l-82 -88l-83 88l-69 -63l78 -82h148zM511 261q84 19 130 75t47 141q-1 103 -68 163q-66 59 -182 60h-369v-700h153v253h124l162 -253h174l-171 259v2zM222 388v178h199q58 0 86 -21q28 -22 28 -66t-30 -68q-29 -23 -82 -23h-201z" />
    <glyph glyph-name="rcaron" unicode="&#x159;" horiz-adv-x="439" 
d="M276 580l78 82l-70 63l-82 -88l-83 88l-69 -63l78 -82h148zM347 540q-48 0 -87 -15q-40 -16 -69 -46h-2v51h-139v-530h148v242q1 82 34 122q34 40 94 40q21 0 39 -2q17 -3 38 -9l31 133q-22 7 -44 10q-21 4 -43 4v0z" />
    <glyph glyph-name="Sacute" unicode="&#x15a;" horiz-adv-x="670" 
d="M237 774h118l136 138h-153zM357 -15q137 1 215 57q78 55 79 152q0 89 -67 144t-206 85q-114 25 -153 44t-36 44q1 32 34 52t89 21q65 0 108 -29q42 -29 59 -86l148 35q-26 98 -109 153q-83 56 -205 57q-128 -2 -202 -60q-74 -57 -75 -144q-1 -78 62 -128q64 -50 207 -82
q114 -25 155 -49q41 -25 38 -58q0 -38 -37 -58q-36 -21 -103 -21q-81 0 -127 36q-47 36 -62 111l-150 -30q21 -118 109 -182q87 -63 229 -64v0z" />
    <glyph glyph-name="sacute" unicode="&#x15b;" horiz-adv-x="601" 
d="M213 605h118l136 138h-153zM317 -15q122 1 193 45q70 45 72 120q1 72 -59 112q-59 41 -191 61q-85 14 -116 26t-29 32q1 21 27 34q27 12 74 12q54 0 93 -22t55 -61l135 41q-24 71 -102 115q-77 44 -180 45q-112 -1 -177 -45q-66 -44 -67 -119q-2 -70 59 -110t204 -62
q72 -11 102 -24t29 -36q0 -22 -32 -34q-31 -12 -89 -12q-129 0 -160 102l-139 -33q21 -87 100 -137q79 -49 198 -50v0z" />
    <glyph glyph-name="Scircumflex" unicode="&#x15c;" horiz-adv-x="670" 
d="M313 843l82 -89l70 63l-78 82h-148l-78 -82l69 -63zM378 423q-114 25 -153 44t-36 44q1 32 34 52t89 21q65 0 108 -29q42 -29 59 -86l148 35q-26 98 -109 153q-83 56 -205 57q-128 -2 -202 -60q-74 -57 -75 -144q-1 -78 62 -128q64 -50 207 -82q114 -25 155 -49
q41 -25 38 -58q0 -38 -37 -58q-36 -21 -103 -21q-81 0 -127 36q-47 36 -62 111l-150 -30q21 -118 109 -182q87 -63 229 -64q137 1 215 57q78 55 79 152q0 89 -67 144t-206 85v0z" />
    <glyph glyph-name="scircumflex" unicode="&#x15d;" horiz-adv-x="601" 
d="M289 674l82 -89l70 63l-78 82h-148l-78 -82l69 -63zM332 323q-85 14 -116 26t-29 32q1 21 27 34q27 12 74 12q54 0 93 -22t55 -61l135 41q-24 71 -102 115q-77 44 -180 45q-112 -1 -177 -45q-66 -44 -67 -119q-2 -70 59 -110t204 -62q72 -11 102 -24t29 -36
q0 -22 -32 -34q-31 -12 -89 -12q-129 0 -160 102l-139 -33q21 -87 100 -137q79 -49 198 -50q122 1 193 45q70 45 72 120q1 72 -59 112q-59 41 -191 61v0z" />
    <glyph glyph-name="Scedilla" unicode="&#x15e;" horiz-adv-x="670" 
d="M651 194q0 89 -67 144t-206 85q-114 25 -153 44t-36 44q1 32 34 52t89 21q65 0 108 -29q42 -29 59 -86l148 35q-26 98 -109 153q-83 56 -205 57q-128 -2 -202 -60q-74 -57 -75 -144q-1 -78 62 -128q64 -50 207 -82q114 -25 155 -49q41 -25 38 -58q0 -38 -37 -58
q-36 -21 -103 -21q-81 0 -127 36q-47 36 -62 111l-150 -30q19 -108 93 -170t195 -74l-58 -94l59 -25q25 19 55 19q21 0 34 -8t13 -22q0 -16 -13 -25q-12 -10 -35 -10q-19 0 -36 6q-17 7 -36 20l-47 -67q27 -19 59 -29q32 -11 65 -11q61 1 96 30q34 30 35 81q-1 44 -31 71
q-31 26 -82 27q-15 0 -29 -3l26 39q125 6 196 61q72 55 73 147v0z" />
    <glyph glyph-name="scedilla" unicode="&#x15f;" horiz-adv-x="601" 
d="M582 150q1 72 -59 112q-59 41 -191 61q-85 14 -116 26t-29 32q1 21 27 34q27 12 74 12q54 0 93 -22t55 -61l135 41q-24 71 -102 115q-77 44 -180 45q-112 -1 -177 -45q-66 -44 -67 -119q-2 -70 59 -110t204 -62q72 -11 102 -24t29 -36q0 -22 -32 -34q-31 -12 -89 -12
q-129 0 -160 102l-139 -33q19 -79 86 -127t169 -58l-59 -95l59 -25q25 19 55 19q21 0 34 -8t13 -22q0 -16 -13 -25q-12 -10 -35 -10q-19 0 -36 6q-17 7 -36 20l-47 -67q27 -19 59 -29q32 -11 65 -11q61 1 96 30q34 30 35 81q-1 44 -31 71q-31 26 -82 27q-15 0 -29 -3l27 40
q108 7 170 51q62 43 63 113v0z" />
    <glyph glyph-name="Scaron" unicode="&#x160;" horiz-adv-x="670" 
d="M387 764l78 82l-70 63l-82 -88l-83 88l-69 -63l78 -82h148zM378 423q-114 25 -153 44t-36 44q1 32 34 52t89 21q65 0 108 -29q42 -29 59 -86l148 35q-26 98 -109 153q-83 56 -205 57q-128 -2 -202 -60q-74 -57 -75 -144q-1 -78 62 -128q64 -50 207 -82q114 -25 155 -49
q41 -25 38 -58q0 -38 -37 -58q-36 -21 -103 -21q-81 0 -127 36q-47 36 -62 111l-150 -30q21 -118 109 -182q87 -63 229 -64q137 1 215 57q78 55 79 152q0 89 -67 144t-206 85v0z" />
    <glyph glyph-name="scaron" unicode="&#x161;" horiz-adv-x="601" 
d="M363 595l78 82l-70 63l-82 -88l-83 88l-69 -63l78 -82h148zM332 323q-85 14 -116 26t-29 32q1 21 27 34q27 12 74 12q54 0 93 -22t55 -61l135 41q-24 71 -102 115q-77 44 -180 45q-112 -1 -177 -45q-66 -44 -67 -119q-2 -70 59 -110t204 -62q72 -11 102 -24t29 -36
q0 -22 -32 -34q-31 -12 -89 -12q-129 0 -160 102l-139 -33q21 -87 100 -137q79 -49 198 -50q122 1 193 45q70 45 72 120q1 72 -59 112q-59 41 -191 61v0z" />
    <glyph glyph-name="uni0162" unicode="&#x162;" horiz-adv-x="700" 
d="M426 0v565h249v135h-651v-135h249v-565h26l-57 -92l59 -25q25 19 55 19q21 0 34 -8t13 -22q0 -16 -13 -25q-12 -10 -35 -10q-19 0 -36 6q-17 7 -36 20l-47 -67q27 -19 59 -29q32 -11 65 -11q61 1 96 30q34 30 35 81q-1 44 -31 71q-31 26 -82 27q-15 0 -29 -3l26 38h51z
" />
    <glyph glyph-name="uni0163" unicode="&#x163;" horiz-adv-x="469" 
d="M449 404v126h-171v133h-148v-133h-125v-126h125v-233q0 -66 24 -106t78 -55h-6l-63 -102l59 -25q25 19 55 19q21 0 34 -8t13 -22q0 -16 -13 -25q-12 -10 -35 -10q-19 0 -36 6q-17 7 -36 20l-47 -67q27 -19 59 -29q32 -11 65 -11q61 1 96 30q34 30 35 81q-1 44 -31 71
q-31 26 -82 27q-15 0 -29 -3l26 38h21h112v137h-97q-32 0 -43 9q-12 10 -11 34v224h171z" />
    <glyph glyph-name="Tcaron" unicode="&#x164;" horiz-adv-x="700" 
d="M424 750l78 82l-70 63l-82 -88l-83 88l-69 -63l78 -82h148zM24 700v-135h249v-565h153v565h249v135h-651z" />
    <glyph glyph-name="tcaron" unicode="&#x165;" horiz-adv-x="445" 
d="M324 812v-120h47q0 -25 -9 -38q-9 -14 -33 -21v-60q63 7 96 40q32 34 32 94v105h-133zM278 663h-148v-133h-125v-126h125v-233q-1 -87 43 -129t144 -42h112v137h-97q-32 0 -43 9q-12 10 -11 34v224h171v126h-171v133z" />
    <glyph glyph-name="Tbar" unicode="&#x166;" horiz-adv-x="700" 
d="M675 565v135h-651v-135h249v-176h-138v-122h138v-267h153v267h139v122h-139v176h249z" />
    <glyph glyph-name="tbar" unicode="&#x167;" horiz-adv-x="469" 
d="M449 404v126h-171v133h-148v-133h-125v-126h125v-76h-105v-101h105v-56q-1 -87 43 -129t144 -42h112v137h-97q-32 0 -43 9q-12 10 -11 34v47h162v101h-162v76h171z" />
    <glyph glyph-name="Utilde" unicode="&#x168;" horiz-adv-x="762" 
d="M461 755q49 0 80 30q30 30 34 87h-74q-8 -33 -43 -33q-32 2 -68 19q-37 17 -87 19q-51 0 -81 -31q-30 -30 -34 -86h74q4 18 15 27q11 8 28 8q32 -2 69 -20q37 -17 87 -20v0zM381 -15q151 0 234 71q82 71 83 213v431h-153v-425q0 -81 -42 -119q-42 -37 -122 -37
q-81 0 -122 37q-42 38 -42 120v424h-153v-431q1 -142 84 -213q82 -71 233 -71v0z" />
    <glyph glyph-name="utilde" unicode="&#x169;" horiz-adv-x="654" 
d="M402 585q49 0 80 30q30 30 34 87h-74q-8 -33 -43 -33q-32 2 -68 19q-37 17 -87 19q-51 0 -81 -31q-30 -30 -34 -86h74q4 18 15 27q11 8 28 8q32 -2 69 -20q37 -17 87 -20v0zM280 -15q56 0 101 17q45 16 78 48h2v-50h143v530h-148v-281q-1 -58 -38 -93q-38 -36 -100 -37
q-64 0 -97 34q-33 33 -33 96v281h-148v-303q1 -116 63 -178q63 -63 177 -64v0z" />
    <glyph glyph-name="Umacron" unicode="&#x16a;" horiz-adv-x="762" 
d="M206 760h349v87h-349v-87zM381 -15q151 0 234 71q82 71 83 213v431h-153v-425q0 -81 -42 -119q-42 -37 -122 -37q-81 0 -122 37q-42 38 -42 120v424h-153v-431q1 -142 84 -213q82 -71 233 -71v0z" />
    <glyph glyph-name="umacron" unicode="&#x16b;" horiz-adv-x="654" 
d="M147 590h349v87h-349v-87zM280 -15q56 0 101 17q45 16 78 48h2v-50h143v530h-148v-281q-1 -58 -38 -93q-38 -36 -100 -37q-64 0 -97 34q-33 33 -33 96v281h-148v-303q1 -116 63 -178q63 -63 177 -64v0z" />
    <glyph glyph-name="Ubreve" unicode="&#x16c;" horiz-adv-x="762" 
d="M382 750q70 1 114 37q43 37 51 102h-78q-7 -23 -30 -37q-23 -13 -57 -13t-57 13q-23 14 -31 37h-77q8 -65 51 -102q44 -36 114 -37v0zM381 -15q151 0 234 71q82 71 83 213v431h-153v-425q0 -81 -42 -119q-42 -37 -122 -37q-81 0 -122 37q-42 38 -42 120v424h-153v-431
q1 -142 84 -213q82 -71 233 -71v0z" />
    <glyph glyph-name="ubreve" unicode="&#x16d;" horiz-adv-x="654" 
d="M323 580q70 1 114 37q43 37 51 102h-78q-7 -23 -30 -37q-23 -13 -57 -13t-57 13q-23 14 -31 37h-77q8 -65 51 -102q44 -36 114 -37v0zM280 -15q56 0 101 17q45 16 78 48h2v-50h143v530h-148v-281q-1 -58 -38 -93q-38 -36 -100 -37q-64 0 -97 34q-33 33 -33 96v281h-148
v-303q1 -116 63 -178q63 -63 177 -64v0z" />
    <glyph glyph-name="Uring" unicode="&#x16e;" horiz-adv-x="762" 
d="M382 686q67 1 108 38q42 36 43 96q-1 59 -43 96q-41 37 -108 38q-66 -1 -107 -38q-42 -37 -43 -96q1 -60 43 -96q41 -37 107 -38v0zM382 752q-30 1 -49 19q-18 19 -19 49q1 31 19 49q19 19 49 19q31 0 50 -19q19 -18 19 -49q0 -30 -19 -49q-19 -18 -50 -19v0zM381 -15
q151 0 234 71q82 71 83 213v431h-153v-425q0 -81 -42 -119q-42 -37 -122 -37q-81 0 -122 37q-42 38 -42 120v424h-153v-431q1 -142 84 -213q82 -71 233 -71v0z" />
    <glyph glyph-name="uring" unicode="&#x16f;" horiz-adv-x="654" 
d="M334 536q67 1 108 38q42 36 43 96q-1 59 -43 96q-41 37 -108 38q-66 -1 -107 -38q-42 -37 -43 -96q1 -60 43 -96q41 -37 107 -38v0zM334 602q-30 1 -49 19q-18 19 -19 49q1 31 19 49q19 19 49 19q31 0 50 -19q19 -18 19 -49q0 -30 -19 -49q-19 -18 -50 -19v0zM280 -15
q56 0 101 17q45 16 78 48h2v-50h143v530h-148v-281q-1 -58 -38 -93q-38 -36 -100 -37q-64 0 -97 34q-33 33 -33 96v281h-148v-303q1 -116 63 -178q63 -63 177 -64v0z" />
    <glyph glyph-name="Uhungarumlaut" unicode="&#x170;" horiz-adv-x="762" 
d="M193 760h113l135 138h-147zM401 760h112l136 138h-148zM381 -15q151 0 234 71q82 71 83 213v431h-153v-425q0 -81 -42 -119q-42 -37 -122 -37q-81 0 -122 37q-42 38 -42 120v424h-153v-431q1 -142 84 -213q82 -71 233 -71v0z" />
    <glyph glyph-name="uhungarumlaut" unicode="&#x171;" horiz-adv-x="654" 
d="M134 590h113l135 138h-147zM342 590h112l136 138h-148zM280 -15q56 0 101 17q45 16 78 48h2v-50h143v530h-148v-281q-1 -58 -38 -93q-38 -36 -100 -37q-64 0 -97 34q-33 33 -33 96v281h-148v-303q1 -116 63 -178q63 -63 177 -64v0z" />
    <glyph glyph-name="Uogonek" unicode="&#x172;" horiz-adv-x="762" 
d="M545 700v-425q0 -81 -42 -119q-42 -37 -122 -37q-81 0 -122 37q-42 38 -42 120v424h-153v-431q1 -142 84 -213q82 -71 233 -71h20q-63 -48 -63 -108q1 -43 29 -66t78 -23q29 0 56 7q26 7 52 21l-37 81q-14 -9 -28 -13q-14 -5 -26 -5q-29 0 -29 28q0 23 20 47q19 24 53 46
q93 26 142 93q50 67 50 176v431h-153z" />
    <glyph glyph-name="uogonek" unicode="&#x173;" horiz-adv-x="654" 
d="M589 -103q-14 -9 -28 -13q-14 -5 -26 -5q-29 0 -29 28q0 23 20 47q19 24 53 46h25v530h-148v-281q-1 -58 -38 -93q-38 -36 -100 -37q-64 0 -97 34q-33 33 -33 96v281h-148v-303q1 -116 63 -178q63 -63 177 -64q56 0 101 17q45 16 78 48h2v-50h33q-42 -28 -62 -58
q-21 -31 -21 -65q1 -43 29 -66t78 -23q29 0 56 7q26 7 52 21z" />
    <glyph glyph-name="Wcircumflex" unicode="&#x174;" horiz-adv-x="1049" 
d="M524 829l82 -89l70 63l-78 82h-148l-78 -82l69 -63zM883 700l-119 -484h-2l-170 484h-135l-170 -484h-2l-118 484h-157l176 -700h158l179 482h2l178 -482h160l176 700h-156z" />
    <glyph glyph-name="wcircumflex" unicode="&#x175;" horiz-adv-x="945" 
d="M472 659l82 -89l70 63l-78 82h-148l-78 -82l69 -63zM781 530l-94 -350h-2l-146 350h-133l-145 -350h-2l-94 350h-150l150 -530h149l157 376h2l159 -376h148l151 530h-150z" />
    <glyph glyph-name="Ycircumflex" unicode="&#x176;" horiz-adv-x="716" 
d="M359 829l82 -89l70 63l-78 82h-148l-78 -82l69 -63zM551 700l-192 -296h-2l-192 296h-175l291 -423v-277h153v277l292 423h-175z" />
    <glyph glyph-name="ycircumflex" unicode="&#x177;" horiz-adv-x="649" 
d="M325 659l82 -89l70 63l-78 82h-148l-78 -82l69 -63zM485 530l-159 -346h-2l-161 346h-163l245 -501l-126 -254h163l367 755h-164z" />
    <glyph glyph-name="Ydieresis" unicode="&#x178;" horiz-adv-x="716" 
d="M185 750h130v128h-130v-128zM402 750h130v128h-130v-128zM281 0h153v277l292 423h-175l-192 -296h-2l-192 296h-175l291 -423v-277z" />
    <glyph glyph-name="Zacute" unicode="&#x179;" horiz-adv-x="704" 
d="M281 760h118l136 138h-153zM35 0h625v134h-416v2l425 445v119h-624v-134h414v-2l-424 -445v-119z" />
    <glyph glyph-name="zacute" unicode="&#x17a;" horiz-adv-x="635" 
d="M242 590h118l136 138h-153zM25 0h585v125h-364v2l358 288v115h-566v-125h345v-2l-358 -288v-115z" />
    <glyph glyph-name="Zdotaccent" unicode="&#x17b;" horiz-adv-x="704" 
d="M292 760h129v127h-129v-127zM35 0h625v134h-416v2l425 445v119h-624v-134h414v-2l-424 -445v-119z" />
    <glyph glyph-name="zdotaccent" unicode="&#x17c;" horiz-adv-x="635" 
d="M241 617h153v148h-153v-148zM25 0h585v125h-364v2l358 288v115h-566v-125h345v-2l-358 -288v-115z" />
    <glyph glyph-name="Zcaron" unicode="&#x17d;" horiz-adv-x="704" 
d="M431 750l78 82l-70 63l-82 -88l-83 88l-69 -63l78 -82h148zM669 581v119h-624v-134h414v-2l-424 -445v-119h625v134h-416v2z" />
    <glyph glyph-name="zcaron" unicode="&#x17e;" horiz-adv-x="635" 
d="M392 580l78 82l-70 63l-82 -88l-83 88l-69 -63l78 -82h148zM246 125v2l358 288v115h-566v-125h345v-2l-358 -288v-115h585v125h-364z" />
    <glyph glyph-name="longs" unicode="&#x17f;" horiz-adv-x="380" 
d="M112 0h148v566q0 41 44 41h111v127h-129q-82 -1 -128 -40q-45 -40 -46 -110v-54h-107v-126h107v-404z" />
    <glyph glyph-name="uni018E" unicode="&#x18e;" horiz-adv-x="637" 
d="M568 0v700h-529v-134h376v-147h-340v-127h340v-158h-375v-134h528z" />
    <glyph glyph-name="uni018F" unicode="&#x18f;" horiz-adv-x="763" 
d="M380 -15q160 3 256 101q96 99 98 261q-2 169 -98 267q-96 99 -255 101q-112 -1 -194 -51q-82 -49 -128 -138l134 -65q30 61 79 91q48 29 109 29q82 -1 133 -47q50 -46 63 -122h-548v-62q3 -171 98 -267q96 -96 253 -98v0zM381 119q-78 1 -134 45q-57 45 -60 123h390
q-10 -79 -65 -123t-131 -45v0z" />
    <glyph glyph-name="florin" unicode="&#x192;" horiz-adv-x="551" 
d="M407 607h119v127h-124q-82 0 -132 -39q-51 -39 -64 -116l-8 -49h-168v-126h145l-75 -433q-4 -24 -18 -35t-39 -11h-98v-127h103q81 0 132 39q50 39 65 116l78 451h199v126h-176l5 31q3 24 17 35t39 11v0z" />
    <glyph glyph-name="uni01CD" unicode="&#x1cd;" horiz-adv-x="763" 
d="M456 750l78 82l-70 63l-82 -88l-83 88l-69 -63l78 -82h148zM603 0h166l-316 700h-143l-315 -700h165l46 108h351zM263 242l118 279h2l118 -279h-238z" />
    <glyph glyph-name="uni01CE" unicode="&#x1ce;" horiz-adv-x="593" 
d="M371 595l78 82l-70 63l-82 -88l-83 88l-69 -63l78 -82h148zM297 545q-105 -1 -178 -51q-72 -50 -90 -134l140 -29q10 44 45 69q35 26 87 26q43 0 68 -15t26 -41q1 -19 -26 -31q-27 -13 -100 -23q-125 -17 -180 -58q-54 -42 -53 -115q1 -72 55 -114q53 -43 143 -44
q60 0 107 20q47 19 72 53h2v-58h133v337q-1 98 -67 152q-67 55 -184 56v0zM407 197q-1 -39 -43 -64t-108 -26q-42 0 -62 11t-20 35q-1 23 26 38q28 14 92 26q53 9 79 19q25 10 34 24h2v-63z" />
    <glyph glyph-name="uni01CF" unicode="&#x1cf;" horiz-adv-x="292" 
d="M220 750l78 82l-70 63l-82 -88l-83 88l-69 -63l78 -82h148zM69 0h153v700h-153v-700z" />
    <glyph glyph-name="uni01D0" unicode="&#x1d0;" horiz-adv-x="247" 
d="M205 725l-82 -88l-83 88l-69 -63l78 -82h148l78 82zM49 0h148v530h-148v-530z" />
    <glyph glyph-name="uni01D1" unicode="&#x1d1;" horiz-adv-x="794" 
d="M471 765l78 82l-70 63l-82 -88l-83 88l-69 -63l78 -82h148zM397 715q-163 -3 -264 -103q-101 -99 -104 -262q3 -163 104 -262q101 -100 264 -103q163 3 264 103q101 99 104 262q-3 163 -104 262q-101 100 -264 103v0zM397 119q-97 2 -155 64q-59 62 -60 167q1 105 60 167
q58 63 155 64q97 -1 156 -64q58 -62 59 -167q-1 -105 -59 -167q-59 -62 -156 -64v0z" />
    <glyph glyph-name="uni01D2" unicode="&#x1d2;" horiz-adv-x="657" 
d="M402 595l78 82l-70 63l-82 -88l-83 88l-69 -63l78 -82h148zM328 545q-133 -3 -215 -81t-84 -199q2 -121 84 -199t215 -81q134 3 215 81q82 78 84 199q-2 121 -84 199q-81 78 -215 81v0zM328 115q-70 1 -110 43q-40 41 -41 107q1 66 41 107q40 42 110 43q70 -1 110 -43
q40 -41 41 -107q-1 -66 -41 -107q-40 -42 -110 -43v0z" />
    <glyph glyph-name="uni01D3" unicode="&#x1d3;" horiz-adv-x="762" 
d="M455 750l78 82l-70 63l-82 -88l-83 88l-69 -63l78 -82h148zM545 700v-425q0 -81 -42 -119q-42 -37 -122 -37q-81 0 -122 37q-42 38 -42 120v424h-153v-431q1 -142 84 -213q82 -71 233 -71t234 71q82 71 83 213v431h-153z" />
    <glyph glyph-name="uni01D4" unicode="&#x1d4;" horiz-adv-x="654" 
d="M396 580l78 82l-70 63l-82 -88l-83 88l-69 -63l78 -82h148zM456 530v-281q-1 -58 -38 -93q-38 -36 -100 -37q-64 0 -97 34q-33 33 -33 96v281h-148v-303q1 -116 63 -178q63 -63 177 -64q56 0 101 17q45 16 78 48h2v-50h143v530h-148z" />
    <glyph glyph-name="uni01D5" unicode="&#x1d5;" horiz-adv-x="762" 
d="M206 918h349v87h-349v-87zM207 750h130v128h-130v-128zM424 750h130v128h-130v-128zM381 -15q151 0 234 71q82 71 83 213v431h-153v-425q0 -81 -42 -119q-42 -37 -122 -37q-81 0 -122 37q-42 38 -42 120v424h-153v-431q1 -142 84 -213q82 -71 233 -71v0z" />
    <glyph glyph-name="uni01D6" unicode="&#x1d6;" horiz-adv-x="654" 
d="M147 748h349v87h-349v-87zM148 580h130v128h-130v-128zM365 580h130v128h-130v-128zM280 -15q56 0 101 17q45 16 78 48h2v-50h143v530h-148v-281q-1 -58 -38 -93q-38 -36 -100 -37q-64 0 -97 34q-33 33 -33 96v281h-148v-303q1 -116 63 -178q63 -63 177 -64v0z" />
    <glyph glyph-name="uni01D7" unicode="&#x1d7;" horiz-adv-x="762" 
d="M305 918h118l136 138h-153zM207 750h130v128h-130v-128zM424 750h130v128h-130v-128zM381 -15q151 0 234 71q82 71 83 213v431h-153v-425q0 -81 -42 -119q-42 -37 -122 -37q-81 0 -122 37q-42 38 -42 120v424h-153v-431q1 -142 84 -213q82 -71 233 -71v0z" />
    <glyph glyph-name="uni01D8" unicode="&#x1d8;" horiz-adv-x="654" 
d="M246 748h118l136 138h-153zM148 580h130v128h-130v-128zM365 580h130v128h-130v-128zM280 -15q56 0 101 17q45 16 78 48h2v-50h143v530h-148v-281q-1 -58 -38 -93q-38 -36 -100 -37q-64 0 -97 34q-33 33 -33 96v281h-148v-303q1 -116 63 -178q63 -63 177 -64v0z" />
    <glyph glyph-name="uni01D9" unicode="&#x1d9;" horiz-adv-x="762" 
d="M455 908l78 82l-70 63l-82 -88l-83 88l-69 -63l78 -82h148zM337 878h-130v-128h130v128zM424 750h130v128h-130v-128zM545 700v-425q0 -81 -42 -119q-42 -37 -122 -37q-81 0 -122 37q-42 38 -42 120v424h-153v-431q1 -142 84 -213q82 -71 233 -71t234 71q82 71 83 213
v431h-153z" />
    <glyph glyph-name="uni01DA" unicode="&#x1da;" horiz-adv-x="654" 
d="M396 738l78 82l-70 63l-82 -88l-83 88l-69 -63l78 -82h148zM278 708h-130v-128h130v128zM365 580h130v128h-130v-128zM456 530v-281q-1 -58 -38 -93q-38 -36 -100 -37q-64 0 -97 34q-33 33 -33 96v281h-148v-303q1 -116 63 -178q63 -63 177 -64q56 0 101 17q45 16 78 48
h2v-50h143v530h-148z" />
    <glyph glyph-name="uni01DB" unicode="&#x1db;" horiz-adv-x="762" 
d="M335 918h117l-101 138h-153zM207 750h130v128h-130v-128zM424 750h130v128h-130v-128zM381 -15q151 0 234 71q82 71 83 213v431h-153v-425q0 -81 -42 -119q-42 -37 -122 -37q-81 0 -122 37q-42 38 -42 120v424h-153v-431q1 -142 84 -213q82 -71 233 -71v0z" />
    <glyph glyph-name="uni01DC" unicode="&#x1dc;" horiz-adv-x="654" 
d="M276 748h117l-101 138h-153zM148 580h130v128h-130v-128zM365 580h130v128h-130v-128zM280 -15q56 0 101 17q45 16 78 48h2v-50h143v530h-148v-281q-1 -58 -38 -93q-38 -36 -100 -37q-64 0 -97 34q-33 33 -33 96v281h-148v-303q1 -116 63 -178q63 -63 177 -64v0z" />
    <glyph glyph-name="uni01DE" unicode="&#x1de;" horiz-adv-x="763" 
d="M556 1005h-349v-87h349v87zM338 750v128h-130v-128h130zM555 750v128h-130v-128h130zM603 0h166l-316 700h-143l-315 -700h165l46 108h351zM263 242l118 279h2l118 -279h-238z" />
    <glyph glyph-name="uni01DF" unicode="&#x1df;" horiz-adv-x="593" 
d="M122 763h349v87h-349v-87zM123 595h130v128h-130v-128zM340 595h130v128h-130v-128zM234 -15q60 0 107 20q47 19 72 53h2v-58h133v337q-1 98 -67 152q-67 55 -184 56q-105 -1 -178 -51q-72 -50 -90 -134l140 -29q10 44 45 69q35 26 87 26q43 0 68 -15t26 -41
q1 -19 -26 -31q-27 -13 -100 -23q-125 -17 -180 -58q-54 -42 -53 -115q1 -72 55 -114q53 -43 143 -44v0zM256 107q-42 0 -62 11t-20 35q-1 23 26 38q28 14 92 26q53 9 79 19q25 10 34 24h2v-63q-1 -39 -43 -64t-108 -26v0z" />
    <glyph glyph-name="Aringacute" unicode="&#x1fa;" horiz-adv-x="763" 
d="M603 0h166l-297 658q29 18 45 46q16 29 16 64q-1 45 -26 78q-26 33 -70 48l123 124h-153l-95 -130q-37 -17 -58 -48q-22 -31 -22 -72q0 -35 16 -63t44 -46l-297 -659h165l46 108h351zM382 700q-30 1 -49 19q-18 19 -19 49q1 31 19 49q19 19 49 19q31 0 50 -19
q19 -18 19 -49q0 -30 -19 -49q-19 -18 -50 -19v0zM263 242l118 279h2l118 -279h-238z" />
    <glyph glyph-name="aringacute" unicode="&#x1fb;" horiz-adv-x="603" 
d="M291 574q60 1 97 34q38 33 39 86q0 36 -19 64t-51 43l127 129h-153l-90 -123q-39 -13 -62 -43q-22 -30 -23 -70q1 -53 39 -86q37 -33 96 -34v0zM291 755q28 0 45 -17t17 -44t-17 -44t-45 -17q-27 0 -44 17t-17 44t17 44t44 17v0zM297 545q-105 -1 -178 -51
q-72 -50 -90 -134l140 -29q10 44 45 69q35 26 87 26q43 0 68 -15t26 -41q1 -19 -26 -31q-27 -13 -100 -23q-125 -17 -180 -58q-54 -42 -53 -115q1 -72 55 -114q53 -43 143 -44q60 0 107 20q47 19 72 53h2v-58h133v337q-1 98 -67 152q-67 55 -184 56v0zM407 197
q-1 -39 -43 -64t-108 -26q-42 0 -62 11t-20 35q-1 23 26 38q28 14 92 26q53 9 79 19q25 10 34 24h2v-63z" />
    <glyph glyph-name="AEacute" unicode="&#x1fc;" horiz-adv-x="1008" 
d="M687 898h-153l-101 -138h118zM968 572v128h-635l-338 -700h167l53 114h303v-114h450v128h-305v167h270v121h-270v156h305zM274 239l156 333h88v-333h-244z" />
    <glyph glyph-name="aeacute" unicode="&#x1fd;" horiz-adv-x="990" 
d="M674 728h-153l-101 -138h118zM961 260q-2 128 -80 206q-77 77 -203 79q-57 0 -105 -19q-49 -18 -87 -55q-33 37 -82 56q-48 18 -108 18q-104 -1 -176 -51q-73 -50 -91 -132l138 -30q11 45 45 69q35 25 84 25q44 0 68 -15q23 -14 23 -40q-22 -52 -175 -64
q-154 -13 -176 -165q1 -71 55 -113q54 -43 149 -44q75 0 130 23q56 22 93 67q39 -46 97 -68q57 -22 129 -22q76 0 137 27q62 27 111 81l-90 92q-38 -42 -76 -61q-39 -19 -84 -19q-66 1 -105 30q-40 30 -44 83h423v42zM540 322q6 48 44 76q38 27 97 27q56 -1 94 -28
q37 -27 43 -75h-278zM399 195q-1 -38 -42 -63q-40 -25 -103 -26q-40 0 -61 11q-20 11 -20 35q11 52 99 62q87 9 125 47h2v-66z" />
    <glyph glyph-name="Oslashacute" unicode="&#x1fe;" horiz-adv-x="794" 
d="M575 913h-153l-101 -138h118zM674 599l50 56l-68 55l-48 -55q-44 29 -98 45q-53 15 -113 15q-163 -3 -264 -103q-101 -99 -104 -262q0 -75 24 -138q23 -63 67 -111l-51 -57l68 -55l49 56q44 -29 98 -45q53 -15 113 -15q163 3 264 103q101 99 104 262q0 75 -24 138
q-23 63 -67 111v0zM178 350q1 107 60 171q59 63 159 65q35 0 65 -9q30 -8 55 -24l-302 -343q-18 29 -27 64q-10 35 -10 76v0zM397 114q-35 0 -65 9q-30 8 -56 24l303 343q18 -29 28 -64q9 -35 9 -76q-1 -107 -60 -171q-59 -63 -159 -65v0z" />
    <glyph glyph-name="oslashacute" unicode="&#x1ff;" horiz-adv-x="657" 
d="M506 743h-153l-101 -138h118zM562 445l44 44l-50 51l-48 -47q-37 25 -82 38q-45 14 -98 14q-133 -3 -215 -81t-84 -199q0 -53 18 -99q17 -46 49 -83l-44 -44l51 -50l47 47q37 -24 82 -37q45 -14 96 -14q134 3 216 81t84 199q0 52 -17 98t-49 82v0zM172 265q1 68 42 111
q42 43 114 44q25 0 46 -6q22 -5 39 -16l-219 -218q-11 18 -16 40q-6 21 -6 45v0zM328 110q-48 0 -83 20l219 218q21 -36 21 -83q-1 -68 -43 -111t-114 -44v0z" />
    <glyph glyph-name="uni0218" unicode="&#x218;" horiz-adv-x="670" 
d="M357 -15q137 1 215 57q78 55 79 152q0 89 -67 144t-206 85q-114 25 -153 44t-36 44q1 32 34 52t89 21q65 0 108 -29q42 -29 59 -86l148 35q-26 98 -109 153q-83 56 -205 57q-128 -2 -202 -60q-74 -57 -75 -144q-1 -78 62 -128q64 -50 207 -82q114 -25 155 -49
q41 -25 38 -58q0 -38 -37 -58q-36 -21 -103 -21q-81 0 -127 36q-47 36 -62 111l-150 -30q21 -118 109 -182q87 -63 229 -64v0zM296 -304q63 7 96 40q32 34 32 94v105h-133v-120h47q0 -25 -9 -38q-9 -14 -33 -21v-60z" />
    <glyph glyph-name="uni0219" unicode="&#x219;" horiz-adv-x="601" 
d="M317 -15q122 1 193 45q70 45 72 120q1 72 -59 112q-59 41 -191 61q-85 14 -116 26t-29 32q1 21 27 34q27 12 74 12q54 0 93 -22t55 -61l135 41q-24 71 -102 115q-77 44 -180 45q-112 -1 -177 -45q-66 -44 -67 -119q-2 -70 59 -110t204 -62q72 -11 102 -24t29 -36
q0 -22 -32 -34q-31 -12 -89 -12q-129 0 -160 102l-139 -33q21 -87 100 -137q79 -49 198 -50v0zM262 -305q63 7 96 40q32 34 32 94v105h-133v-120h47q0 -25 -9 -38q-9 -14 -33 -21v-60z" />
    <glyph glyph-name="uni021A" unicode="&#x21a;" horiz-adv-x="700" 
d="M273 0h153v565h249v135h-651v-135h249v-565zM289 -289q63 7 96 40q32 34 32 94v105h-133v-120h47q0 -25 -9 -38q-9 -14 -33 -21v-60z" />
    <glyph glyph-name="uni021B" unicode="&#x21b;" horiz-adv-x="469" 
d="M449 404v126h-171v133h-148v-133h-125v-126h125v-233q-1 -87 43 -129t144 -42h112v137h-97q-32 0 -43 9q-12 10 -11 34v224h171zM205 -170h47q0 -25 -9 -38q-9 -14 -33 -21v-60q63 7 96 40q32 34 32 94v105h-133v-120z" />
    <glyph glyph-name="uni0228" unicode="&#x228;" horiz-adv-x="637" 
d="M598 566v134h-529v-700h213l-57 -92l59 -25q25 19 55 19q21 0 34 -8t13 -22q0 -16 -13 -25q-12 -10 -35 -10q-19 0 -36 6q-17 7 -36 20l-47 -67q27 -19 59 -29q32 -11 65 -11q61 1 96 30q34 30 35 81q-1 44 -31 71q-31 26 -82 27q-15 0 -29 -3l26 38h239v134h-375v158
h340v127h-340v147h376z" />
    <glyph glyph-name="uni0229" unicode="&#x229;" horiz-adv-x="634" 
d="M605 260q-1 122 -77 202t-211 83q-128 -2 -207 -79t-81 -202q1 -116 65 -189q64 -72 183 -87l-59 -95l59 -25q25 19 55 19q21 0 34 -8t13 -22q0 -16 -13 -25q-12 -10 -35 -10q-19 0 -36 6q-17 7 -36 20l-47 -67q27 -19 59 -29q32 -11 65 -11q61 1 96 30q34 30 35 81
q-1 44 -31 71q-31 26 -82 27q-15 0 -29 -3l26 39q75 4 131 32q56 27 98 74l-92 92q-37 -40 -76 -59q-38 -20 -87 -20q-67 1 -106 31q-40 30 -44 82h430v42zM177 322q7 47 45 75q37 27 98 28q60 -1 98 -28q37 -28 43 -75h-284z" />
    <glyph glyph-name="uni0237" unicode="&#x237;" horiz-adv-x="254" 
d="M-81 -206h92q105 -1 150 44t44 143v549h-148v-547q0 -28 -13 -41t-45 -13h-80v-135z" />
    <glyph glyph-name="uni0258" unicode="&#x258;" horiz-adv-x="634" 
d="M308 -15q141 2 218 77q78 74 79 202q-2 125 -81 202t-207 79q-135 -3 -211 -83t-77 -202v-42h430q-4 -52 -43 -82q-40 -30 -107 -31q-49 0 -87 20q-39 19 -76 59l-92 -92q45 -51 107 -79t147 -28v0zM457 322h-284q6 47 44 75q37 27 97 28q61 -1 99 -28q37 -28 44 -75v0z
" />
    <glyph glyph-name="uni0259" unicode="&#x259;" horiz-adv-x="634" 
d="M317 -15q128 2 207 79t81 202q-1 128 -79 203q-77 74 -218 76q-85 -1 -145 -29q-60 -29 -107 -77l90 -93q37 38 76 59q38 20 87 20q68 -1 107 -31t43 -82h-430v-42q1 -122 77 -202t211 -83v0zM315 105q-61 1 -98 28q-38 28 -44 75h284q-7 -47 -44 -75q-38 -27 -98 -28v0z
" />
    <glyph glyph-name="circumflex" unicode="&#x2c6;" horiz-adv-x="402" 
d="M353 633l-78 82h-148l-78 -82l69 -63l83 89l82 -89z" />
    <glyph glyph-name="caron" unicode="&#x2c7;" horiz-adv-x="402" 
d="M283 725l-82 -88l-83 88l-69 -63l78 -82h148l78 82z" />
    <glyph glyph-name="breve" unicode="&#x2d8;" horiz-adv-x="406" 
d="M214 580q70 1 114 37q43 37 51 102h-78q-7 -23 -30 -37q-23 -13 -57 -13t-57 13q-23 14 -31 37h-77q8 -65 51 -102q44 -36 114 -37v0z" />
    <glyph glyph-name="dotaccent" unicode="&#x2d9;" horiz-adv-x="228" 
d="M49 590h129v127h-129v-127z" />
    <glyph glyph-name="ring" unicode="&#x2da;" horiz-adv-x="399" 
d="M199 464q67 1 108 38q42 36 43 96q-1 59 -43 96q-41 37 -108 38q-66 -1 -107 -38q-42 -37 -43 -96q1 -60 43 -96q41 -37 107 -38v0zM199 530q-30 1 -49 19q-18 19 -19 49q1 31 19 49q19 19 49 19q31 0 50 -19q19 -18 19 -49q0 -30 -19 -49q-19 -18 -50 -19v0z" />
    <glyph glyph-name="ogonek" unicode="&#x2db;" horiz-adv-x="314" 
d="M156 -212q29 0 56 7q26 7 52 21l-37 81q-14 -9 -28 -13q-14 -5 -26 -5q-29 0 -29 28q0 23 20 47q19 24 53 46l-58 16q-55 -31 -83 -65q-27 -34 -27 -74q1 -43 29 -66t78 -23v0z" />
    <glyph glyph-name="tilde" unicode="&#x2dc;" horiz-adv-x="460" 
d="M322 585q49 0 80 30q30 30 34 87h-74q-8 -33 -43 -33q-32 2 -68 19q-37 17 -87 19q-51 0 -81 -31q-30 -30 -34 -86h74q4 18 15 27q11 8 28 8q32 -2 69 -20q37 -17 87 -20v0z" />
    <glyph glyph-name="hungarumlaut" unicode="&#x2dd;" horiz-adv-x="555" 
d="M49 590h113l135 138h-147zM257 590h112l136 138h-148z" />
    <glyph glyph-name="gravecomb" unicode="&#x300;" horiz-adv-x="0" 
d="M-117 590h117l-101 138h-153z" />
    <glyph glyph-name="acutecomb" unicode="&#x301;" horiz-adv-x="0" 
d="M-254 590h118l136 138h-153z" />
    <glyph glyph-name="uni0302" unicode="&#x302;" horiz-adv-x="0" 
d="M0 633l-78 82h-148l-78 -82l69 -63l83 89l82 -89z" />
    <glyph glyph-name="tildecomb" unicode="&#x303;" horiz-adv-x="0" 
d="M-114 585q49 0 80 30q30 30 34 87h-74q-8 -33 -43 -33q-32 2 -68 19q-37 17 -87 19q-51 0 -81 -31q-30 -30 -34 -86h74q4 18 15 27q11 8 28 8q32 -2 69 -20q37 -17 87 -20v0z" />
    <glyph glyph-name="uni0304" unicode="&#x304;" horiz-adv-x="0" 
d="M-349 590h349v87h-349v-87z" />
    <glyph glyph-name="uni0306" unicode="&#x306;" horiz-adv-x="0" 
d="M-165 580q70 1 114 37q43 37 51 102h-78q-7 -23 -30 -37q-23 -13 -57 -13t-57 13q-23 14 -31 37h-77q8 -65 51 -102q44 -36 114 -37v0z" />
    <glyph glyph-name="uni0307" unicode="&#x307;" horiz-adv-x="0" 
d="M-129 590h129v127h-129v-127z" />
    <glyph glyph-name="uni0308" unicode="&#x308;" horiz-adv-x="0" 
d="M-347 580h130v128h-130v-128zM-130 580h130v128h-130v-128z" />
    <glyph glyph-name="uni030A" unicode="&#x30a;" horiz-adv-x="0" 
d="M-151 464q67 1 108 38q42 36 43 96q-1 59 -43 96q-41 37 -108 38q-66 -1 -107 -38q-42 -37 -43 -96q1 -60 43 -96q41 -37 107 -38v0zM-151 530q-30 1 -49 19q-18 19 -19 49q1 31 19 49q19 19 49 19q31 0 50 -19q19 -18 19 -49q0 -30 -19 -49q-19 -18 -50 -19v0z" />
    <glyph glyph-name="uni030B" unicode="&#x30b;" horiz-adv-x="0" 
d="M-456 590h113l135 138h-147zM-248 590h112l136 138h-148z" />
    <glyph glyph-name="uni030C" unicode="&#x30c;" horiz-adv-x="0" 
d="M-70 725l-82 -88l-83 88l-69 -63l78 -82h148l78 82z" />
    <glyph glyph-name="uni0312" unicode="&#x312;" horiz-adv-x="0" 
d="M-5 826q-71 -7 -106 -40q-36 -33 -36 -91v-104h147v118h-53q0 24 10 38q11 13 38 20v59z" />
    <glyph glyph-name="dotbelowcomb" unicode="&#x323;" horiz-adv-x="0" 
d="M-129 -177h129v127h-129v-127z" />
    <glyph glyph-name="uni0326" unicode="&#x326;" horiz-adv-x="0" 
d="M-127 -289q63 7 96 40q32 34 32 94v105h-133v-120h47q0 -25 -9 -38q-9 -14 -33 -21v-60z" />
    <glyph glyph-name="uni0327" unicode="&#x327;" horiz-adv-x="0" 
d="M-113 -35q-15 0 -29 -3l31 46l-75 2l-63 -102l59 -25q25 19 55 19q21 0 34 -8t13 -22q0 -16 -13 -25q-12 -10 -35 -10q-19 0 -36 6q-17 7 -36 20l-47 -67q27 -19 59 -29q32 -11 65 -11q61 1 96 30q34 30 35 81q-1 44 -31 71q-31 26 -82 27v0z" />
    <glyph glyph-name="uni0328" unicode="&#x328;" horiz-adv-x="0" 
d="M-108 -212q29 0 56 7q26 7 52 21l-37 81q-14 -9 -28 -13q-14 -5 -26 -5q-29 0 -29 28q0 23 20 47q19 24 53 46l-58 16q-55 -31 -83 -65q-27 -34 -27 -74q1 -43 29 -66t78 -23v0z" />
    <glyph glyph-name="uni0335" unicode="&#x335;" horiz-adv-x="0" 
d="M-430 295h430v122h-430v-122z" />
    <glyph glyph-name="uni0336" unicode="&#x336;" horiz-adv-x="0" 
d="M-766 296h766v115h-766v-115z" />
    <glyph glyph-name="uni0337" unicode="&#x337;" horiz-adv-x="0" 
d="M-503 -10l503 500l-51 51l-503 -501z" />
    <glyph glyph-name="uni0338" unicode="&#x338;" horiz-adv-x="0" 
d="M-586 -11l586 666l-68 55l-586 -666z" />
    <glyph glyph-name="uni0394" unicode="&#x394;" horiz-adv-x="766" 
d="M455 700h-143l-317 -700h776zM219 138l163 383h2l163 -383h-328z" />
    <glyph glyph-name="uni03A9" unicode="&#x3a9;" horiz-adv-x="782" 
d="M625 102q64 45 95 110q32 65 32 149q-3 157 -102 254t-259 100q-160 -3 -259 -100q-100 -97 -103 -254q0 -84 32 -149t96 -110v-2h-124v-100h314v92q-85 32 -125 97q-40 64 -40 171q2 99 59 159t150 62q93 -2 150 -62q56 -60 58 -159q0 -107 -40 -171q-40 -65 -124 -97
v-92h313v100h-123v2z" />
    <glyph glyph-name="uni03BC" unicode="&#x3bc;" horiz-adv-x="665" 
d="M468 530v-281q-1 -58 -38 -93q-38 -36 -100 -37q-64 0 -97 34q-34 33 -34 96v281h-149v-755h148v246h2q23 -17 53 -27q30 -9 67 -9q46 0 86 16q39 17 65 49h2v-50h143v530h-148z" />
    <glyph glyph-name="pi" unicode="&#x3c0;" horiz-adv-x="808" 
d="M768 400v130h-763v-130h152v-400h143v400h170v-249q0 -80 45 -116q44 -36 127 -35h118v137h-88q-32 -1 -43 10q-12 10 -11 38v215h150z" />
    <glyph glyph-name="uni0E3F" unicode="&#xe3f;" horiz-adv-x="741" 
d="M603 379v2q34 20 53 54q19 33 19 77q-2 83 -59 135q-57 51 -150 53h-59v101h-70v-101h-258v-700h258v-111h70v111h28q134 0 200 54q66 55 66 164q0 56 -26 98t-72 63v0zM231 564h106v-143h-106v143zM441 564q41 0 61 -19q21 -18 21 -52q0 -35 -21 -53q-20 -19 -61 -19
h-34v143h34zM231 136v164h106v-164h-106zM457 136h-50v164h51q45 0 68 -21t23 -60q0 -41 -22 -62t-70 -21v0z" />
    <glyph glyph-name="uni1E04" unicode="&#x1e04;" horiz-adv-x="721" 
d="M69 0h356q134 0 200 54q66 55 66 164q0 56 -26 98t-72 63v2q34 20 53 54q19 33 19 77q-2 83 -59 135q-57 51 -150 53h-387v-700zM222 420v146h209q40 0 60 -19q21 -19 21 -54t-21 -54q-20 -19 -60 -19h-209zM222 134v167h226q44 0 67 -21q23 -22 23 -61q0 -43 -22 -64
t-69 -21h-225zM301 -177h129v127h-129v-127z" />
    <glyph glyph-name="uni1E05" unicode="&#x1e05;" horiz-adv-x="684" 
d="M368 -15q128 2 207 79q78 76 80 201q-2 123 -81 200q-78 78 -202 80q-53 0 -97 -15q-44 -14 -75 -42h-2v242h-148v-730h137v52h2q30 -33 76 -50q45 -17 103 -17v0zM349 116q-65 1 -107 34t-44 83v67q2 49 45 81q43 33 106 34q72 -1 114 -42q43 -40 44 -108
q-1 -68 -43 -108t-115 -41v0zM292 -192h129v127h-129v-127z" />
    <glyph glyph-name="uni1E0C" unicode="&#x1e0c;" horiz-adv-x="739" 
d="M69 0h285q161 -1 258 85q96 86 98 265q-2 174 -97 262q-96 88 -257 88h-287v-700zM222 134v432h129q101 0 153 -52q53 -53 53 -164q0 -117 -53 -167t-153 -49h-129zM303 -177h129v127h-129v-127z" />
    <glyph glyph-name="uni1E0D" unicode="&#x1e0d;" horiz-adv-x="684" 
d="M316 -15q58 0 103 17q46 17 76 50h2v-52h137v730h-148v-242h-2q-31 28 -75 42q-44 15 -97 15q-124 -2 -202 -80q-78 -77 -81 -200q2 -125 81 -201q78 -77 206 -79v0zM335 116q-73 1 -115 41t-43 108q1 68 44 108q42 41 114 42q63 -1 106 -34q43 -32 45 -81v-67
q-2 -50 -44 -83t-107 -34v0zM274 -177h129v127h-129v-127z" />
    <glyph glyph-name="uni1E24" unicode="&#x1e24;" horiz-adv-x="765" 
d="M69 0h153v287h320v-287h153v700h-153v-274h-320v274h-153v-700zM318 -177h129v127h-129v-127z" />
    <glyph glyph-name="uni1E25" unicode="&#x1e25;" horiz-adv-x="672" 
d="M50 0h148v283q1 59 40 94t104 36q65 -1 101 -35t37 -95v-283h148v303q-2 109 -70 175q-68 65 -184 67q-53 0 -97 -17q-44 -16 -77 -48h-2v250h-148v-730zM274 -177h129v127h-129v-127z" />
    <glyph glyph-name="uni1E36" unicode="&#x1e36;" horiz-adv-x="611" 
d="M69 0h517v135h-364v565h-153v-700zM263 -177h129v127h-129v-127z" />
    <glyph glyph-name="uni1E37" unicode="&#x1e37;" horiz-adv-x="247" 
d="M49 0h148v730h-148v-730zM59 -177h129v127h-129v-127z" />
    <glyph glyph-name="uni1E44" unicode="&#x1e44;" horiz-adv-x="788" 
d="M330 760h129v127h-129v-127zM69 0h153v486h2l329 -486h166v700h-153v-485h-2l-328 485h-167v-700z" />
    <glyph glyph-name="uni1E45" unicode="&#x1e45;" horiz-adv-x="672" 
d="M288 605h129v127h-129v-127zM50 0h148v283q1 59 40 94t104 36q65 -1 101 -35t37 -95v-283h148v302q-2 110 -70 176q-68 65 -184 67q-53 0 -99 -17q-46 -16 -80 -48h-2v50h-143v-530z" />
    <glyph glyph-name="uni1E46" unicode="&#x1e46;" horiz-adv-x="788" 
d="M69 0h153v486h2l329 -486h166v700h-153v-485h-2l-328 485h-167v-700zM340 -177h129v127h-129v-127z" />
    <glyph glyph-name="uni1E47" unicode="&#x1e47;" horiz-adv-x="672" 
d="M50 0h148v283q1 59 40 94t104 36q65 -1 101 -35t37 -95v-283h148v302q-2 110 -70 176q-68 65 -184 67q-53 0 -99 -17q-46 -16 -80 -48h-2v50h-143v-530zM274 -177h129v127h-129v-127z" />
    <glyph glyph-name="uni1E4C" unicode="&#x1e4c;" horiz-adv-x="794" 
d="M321 922h118l136 138h-153zM477 770q49 0 80 30q30 30 34 87h-74q-8 -33 -43 -33q-32 2 -68 19q-37 17 -87 19q-51 0 -81 -31q-30 -30 -34 -86h74q4 18 15 27q11 8 28 8q32 -2 69 -20q37 -17 87 -20v0zM397 -15q163 3 264 103q101 99 104 262q-3 163 -104 262
q-101 100 -264 103q-163 -3 -264 -103q-101 -99 -104 -262q3 -163 104 -262q101 -100 264 -103v0zM397 119q-97 2 -155 64q-59 62 -60 167q1 105 60 167q58 63 155 64q97 -1 156 -64q58 -62 59 -167q-1 -105 -59 -167q-59 -62 -156 -64v0z" />
    <glyph glyph-name="uni1E4D" unicode="&#x1e4d;" horiz-adv-x="657" 
d="M252 752h118l136 138h-153zM408 600q49 0 80 30q30 30 34 87h-74q-8 -33 -43 -33q-32 2 -68 19q-37 17 -87 19q-51 0 -81 -31q-30 -30 -34 -86h74q4 18 15 27q11 8 28 8q32 -2 69 -20q37 -17 87 -20v0zM328 -15q134 3 215 81q82 78 84 199q-2 121 -84 199q-81 78 -215 81
q-133 -3 -215 -81t-84 -199q2 -121 84 -199t215 -81v0zM328 115q-70 1 -110 43q-40 41 -41 107q1 66 41 107q40 42 110 43q70 -1 110 -43q40 -41 41 -107q-1 -66 -41 -107q-40 -42 -110 -43v0z" />
    <glyph glyph-name="uni1E62" unicode="&#x1e62;" horiz-adv-x="670" 
d="M357 -15q137 1 215 57q78 55 79 152q0 89 -67 144t-206 85q-114 25 -153 44t-36 44q1 32 34 52t89 21q65 0 108 -29q42 -29 59 -86l148 35q-26 98 -109 153q-83 56 -205 57q-128 -2 -202 -60q-74 -57 -75 -144q-1 -78 62 -128q64 -50 207 -82q114 -25 155 -49
q41 -25 38 -58q0 -38 -37 -58q-36 -21 -103 -21q-81 0 -127 36q-47 36 -62 111l-150 -30q21 -118 109 -182q87 -63 229 -64v0zM292 -192h129v127h-129v-127z" />
    <glyph glyph-name="uni1E63" unicode="&#x1e63;" horiz-adv-x="601" 
d="M317 -15q122 1 193 45q70 45 72 120q1 72 -59 112q-59 41 -191 61q-85 14 -116 26t-29 32q1 21 27 34q27 12 74 12q54 0 93 -22t55 -61l135 41q-24 71 -102 115q-77 44 -180 45q-112 -1 -177 -45q-66 -44 -67 -119q-2 -70 59 -110t204 -62q72 -11 102 -24t29 -36
q0 -22 -32 -34q-31 -12 -89 -12q-129 0 -160 102l-139 -33q21 -87 100 -137q79 -49 198 -50v0zM258 -193h129v127h-129v-127z" />
    <glyph glyph-name="uni1E6C" unicode="&#x1e6c;" horiz-adv-x="700" 
d="M273 0h153v565h249v135h-651v-135h249v-565zM285 -177h129v127h-129v-127z" />
    <glyph glyph-name="uni1E6D" unicode="&#x1e6d;" horiz-adv-x="469" 
d="M449 404v126h-171v133h-148v-133h-125v-126h125v-233q-1 -87 43 -129t144 -42h112v137h-97q-32 0 -43 9q-12 10 -11 34v224h171zM206 -177h129v127h-129v-127z" />
    <glyph glyph-name="Wgrave" unicode="&#x1e80;" horiz-adv-x="1049" 
d="M478 760h117l-101 138h-153zM186 0h158l179 482h2l178 -482h160l176 700h-156l-119 -484h-2l-170 484h-135l-170 -484h-2l-118 484h-157z" />
    <glyph glyph-name="wgrave" unicode="&#x1e81;" horiz-adv-x="945" 
d="M426 590h117l-101 138h-153zM165 0h149l157 376h2l159 -376h148l151 530h-150l-94 -350h-2l-146 350h-133l-145 -350h-2l-94 350h-150z" />
    <glyph glyph-name="Wacute" unicode="&#x1e82;" horiz-adv-x="1049" 
d="M448 760h118l136 138h-153zM186 0h158l179 482h2l178 -482h160l176 700h-156l-119 -484h-2l-170 484h-135l-170 -484h-2l-118 484h-157z" />
    <glyph glyph-name="wacute" unicode="&#x1e83;" horiz-adv-x="945" 
d="M396 590h118l136 138h-153zM165 0h149l157 376h2l159 -376h148l151 530h-150l-94 -350h-2l-146 350h-133l-145 -350h-2l-94 350h-150z" />
    <glyph glyph-name="Wdieresis" unicode="&#x1e84;" horiz-adv-x="1049" 
d="M350 750h130v128h-130v-128zM567 750h130v128h-130v-128zM186 0h158l179 482h2l178 -482h160l176 700h-156l-119 -484h-2l-170 484h-135l-170 -484h-2l-118 484h-157z" />
    <glyph glyph-name="wdieresis" unicode="&#x1e85;" horiz-adv-x="945" 
d="M298 580h130v128h-130v-128zM515 580h130v128h-130v-128zM165 0h149l157 376h2l159 -376h148l151 530h-150l-94 -350h-2l-146 350h-133l-145 -350h-2l-94 350h-150z" />
    <glyph glyph-name="uni1E92" unicode="&#x1e92;" horiz-adv-x="704" 
d="M35 0h625v134h-416v2l425 445v119h-624v-134h414v-2l-424 -445v-119zM287 -177h129v127h-129v-127z" />
    <glyph glyph-name="uni1E93" unicode="&#x1e93;" horiz-adv-x="635" 
d="M25 0h585v125h-364v2l358 288v115h-566v-125h345v-2l-358 -288v-115zM253 -177h129v127h-129v-127z" />
    <glyph glyph-name="uni1EA0" unicode="&#x1ea0;" horiz-adv-x="763" 
d="M769 0l-316 700h-143l-315 -700h165l46 108h351l46 -108h166zM263 242l118 279h2l118 -279h-238zM317 -177h129v127h-129v-127z" />
    <glyph glyph-name="uni1EA1" unicode="&#x1ea1;" horiz-adv-x="593" 
d="M234 -15q60 0 107 20q47 19 72 53h2v-58h133v337q-1 98 -67 152q-67 55 -184 56q-105 -1 -178 -51q-72 -50 -90 -134l140 -29q10 44 45 69q35 26 87 26q43 0 68 -15t26 -41q1 -19 -26 -31q-27 -13 -100 -23q-125 -17 -180 -58q-54 -42 -53 -115q1 -72 55 -114
q53 -43 143 -44v0zM256 107q-42 0 -62 11t-20 35q-1 23 26 38q28 14 92 26q53 9 79 19q25 10 34 24h2v-63q-1 -39 -43 -64t-108 -26v0zM229 -192h129v127h-129v-127z" />
    <glyph glyph-name="uni1EAC" unicode="&#x1eac;" horiz-adv-x="763" 
d="M382 829l82 -89l70 63l-78 82h-148l-78 -82l69 -63zM769 0l-316 700h-143l-315 -700h165l46 108h351l46 -108h166zM263 242l118 279h2l118 -279h-238zM317 -177h129v127h-129v-127z" />
    <glyph glyph-name="uni1EAD" unicode="&#x1ead;" horiz-adv-x="593" 
d="M297 674l82 -89l70 63l-78 82h-148l-78 -82l69 -63zM297 545q-105 -1 -178 -51q-72 -50 -90 -134l140 -29q10 44 45 69q35 26 87 26q43 0 68 -15t26 -41q1 -19 -26 -31q-27 -13 -100 -23q-125 -17 -180 -58q-54 -42 -53 -115q1 -72 55 -114q53 -43 143 -44q60 0 107 20
q47 19 72 53h2v-58h133v337q-1 98 -67 152q-67 55 -184 56v0zM407 197q-1 -39 -43 -64t-108 -26q-42 0 -62 11t-20 35q-1 23 26 38q28 14 92 26q53 9 79 19q25 10 34 24h2v-63zM229 -192h129v127h-129v-127z" />
    <glyph glyph-name="uni1EB8" unicode="&#x1eb8;" horiz-adv-x="637" 
d="M69 0h528v134h-375v158h340v127h-340v147h376v134h-529v-700zM268 -177h129v127h-129v-127z" />
    <glyph glyph-name="uni1EB9" unicode="&#x1eb9;" horiz-adv-x="634" 
d="M326 -15q85 0 147 28t107 79l-92 92q-37 -40 -76 -59q-38 -20 -87 -20q-67 1 -106 31q-40 30 -44 82h430v42q-1 122 -77 202t-211 83q-128 -2 -207 -79t-81 -202q1 -128 79 -202q77 -75 218 -77v0zM177 322q7 47 45 75q37 27 98 28q60 -1 98 -28q37 -28 43 -75h-284z
M261 -192h129v127h-129v-127z" />
    <glyph glyph-name="uni1EBC" unicode="&#x1ebc;" horiz-adv-x="637" 
d="M416 755q49 0 80 30q30 30 34 87h-74q-8 -33 -43 -33q-32 2 -68 19q-37 17 -87 19q-51 0 -81 -31q-30 -30 -34 -86h74q4 18 15 27q11 8 28 8q32 -2 69 -20q37 -17 87 -20v0zM69 0h528v134h-375v158h340v127h-340v147h376v134h-529v-700z" />
    <glyph glyph-name="uni1EBD" unicode="&#x1ebd;" horiz-adv-x="634" 
d="M397 600q49 0 80 30q30 30 34 87h-74q-8 -33 -43 -33q-32 2 -68 19q-37 17 -87 19q-51 0 -81 -31q-30 -30 -34 -86h74q4 18 15 27q11 8 28 8q32 -2 69 -20q37 -17 87 -20v0zM326 -15q85 0 147 28t107 79l-92 92q-37 -40 -76 -59q-38 -20 -87 -20q-67 1 -106 31
q-40 30 -44 82h430v42q-1 122 -77 202t-211 83q-128 -2 -207 -79t-81 -202q1 -128 79 -202q77 -75 218 -77v0zM177 322q7 47 45 75q37 27 98 28q60 -1 98 -28q37 -28 43 -75h-284z" />
    <glyph glyph-name="uni1EC6" unicode="&#x1ec6;" horiz-adv-x="637" 
d="M336 829l82 -89l70 63l-78 82h-148l-78 -82l69 -63zM598 566v134h-529v-700h528v134h-375v158h340v127h-340v147h376zM268 -177h129v127h-129v-127z" />
    <glyph glyph-name="uni1EC7" unicode="&#x1ec7;" horiz-adv-x="634" 
d="M317 674l82 -89l70 63l-78 82h-148l-78 -82l69 -63zM605 260q-1 122 -77 202t-211 83q-128 -2 -207 -79t-81 -202q1 -128 79 -202q77 -75 218 -77q85 0 147 28t107 79l-92 92q-37 -40 -76 -59q-38 -20 -87 -20q-67 1 -106 31q-40 30 -44 82h430v42zM177 322q7 47 45 75
q37 27 98 28q60 -1 98 -28q37 -28 43 -75h-284zM261 -192h129v127h-129v-127z" />
    <glyph glyph-name="uni1ECA" unicode="&#x1eca;" horiz-adv-x="292" 
d="M69 0h153v700h-153v-700zM81 -177h129v127h-129v-127z" />
    <glyph glyph-name="uni1ECB" unicode="&#x1ecb;" horiz-adv-x="247" 
d="M46 617h153v148h-153v-148zM49 0h148v530h-148v-530zM59 -177h129v127h-129v-127z" />
    <glyph glyph-name="uni1ECC" unicode="&#x1ecc;" horiz-adv-x="794" 
d="M397 -15q163 3 264 103q101 99 104 262q-3 163 -104 262q-101 100 -264 103q-163 -3 -264 -103q-101 -99 -104 -262q3 -163 104 -262q101 -100 264 -103v0zM397 119q-97 2 -155 64q-59 62 -60 167q1 105 60 167q58 63 155 64q97 -1 156 -64q58 -62 59 -167
q-1 -105 -59 -167q-59 -62 -156 -64v0zM332 -192h129v127h-129v-127z" />
    <glyph glyph-name="uni1ECD" unicode="&#x1ecd;" horiz-adv-x="657" 
d="M328 -15q134 3 215 81q82 78 84 199q-2 121 -84 199q-81 78 -215 81q-133 -3 -215 -81t-84 -199q2 -121 84 -199t215 -81v0zM328 115q-70 1 -110 43q-40 41 -41 107q1 66 41 107q40 42 110 43q70 -1 110 -43q40 -41 41 -107q-1 -66 -41 -107q-40 -42 -110 -43v0z
M263 -192h129v127h-129v-127z" />
    <glyph glyph-name="uni1ED8" unicode="&#x1ed8;" horiz-adv-x="794" 
d="M397 844l82 -89l70 63l-78 82h-148l-78 -82l69 -63zM397 715q-163 -3 -264 -103q-101 -99 -104 -262q3 -163 104 -262q101 -100 264 -103q163 3 264 103q101 99 104 262q-3 163 -104 262q-101 100 -264 103v0zM397 119q-97 2 -155 64q-59 62 -60 167q1 105 60 167
q58 63 155 64q97 -1 156 -64q58 -62 59 -167q-1 -105 -59 -167q-59 -62 -156 -64v0zM332 -192h129v127h-129v-127z" />
    <glyph glyph-name="uni1ED9" unicode="&#x1ed9;" horiz-adv-x="657" 
d="M328 674l82 -89l70 63l-78 82h-148l-78 -82l69 -63zM328 545q-133 -3 -215 -81t-84 -199q2 -121 84 -199t215 -81q134 3 215 81q82 78 84 199q-2 121 -84 199q-81 78 -215 81v0zM328 115q-70 1 -110 43q-40 41 -41 107q1 66 41 107q40 42 110 43q70 -1 110 -43
q40 -41 41 -107q-1 -66 -41 -107q-40 -42 -110 -43v0zM263 -192h129v127h-129v-127z" />
    <glyph glyph-name="uni1EE4" unicode="&#x1ee4;" horiz-adv-x="762" 
d="M381 -15q151 0 234 71q82 71 83 213v431h-153v-425q0 -81 -42 -119q-42 -37 -122 -37q-81 0 -122 37q-42 38 -42 120v424h-153v-431q1 -142 84 -213q82 -71 233 -71v0zM316 -192h129v127h-129v-127z" />
    <glyph glyph-name="uni1EE5" unicode="&#x1ee5;" horiz-adv-x="654" 
d="M280 -15q56 0 101 17q45 16 78 48h2v-50h143v530h-148v-281q-1 -58 -38 -93q-38 -36 -100 -37q-64 0 -97 34q-33 33 -33 96v281h-148v-303q1 -116 63 -178q63 -63 177 -64v0zM223 -193h129v127h-129v-127z" />
    <glyph glyph-name="Ygrave" unicode="&#x1ef2;" horiz-adv-x="716" 
d="M313 760h117l-101 138h-153zM281 0h153v277l292 423h-175l-192 -296h-2l-192 296h-175l291 -423v-277z" />
    <glyph glyph-name="ygrave" unicode="&#x1ef3;" horiz-adv-x="649" 
d="M279 590h117l-101 138h-153zM119 -225h163l367 755h-164l-159 -346h-2l-161 346h-163l245 -501z" />
    <glyph glyph-name="uni1EF4" unicode="&#x1ef4;" horiz-adv-x="716" 
d="M281 0h153v277l292 423h-175l-192 -296h-2l-192 296h-175l291 -423v-277zM294 -177h129v127h-129v-127z" />
    <glyph glyph-name="uni1EF5" unicode="&#x1ef5;" horiz-adv-x="649" 
d="M119 -225h163l367 755h-164l-159 -346h-2l-161 346h-163l245 -501zM422 -177h129v127h-129v-127z" />
    <glyph glyph-name="uni1EF8" unicode="&#x1ef8;" horiz-adv-x="716" 
d="M439 755q49 0 80 30q30 30 34 87h-74q-8 -33 -43 -33q-32 2 -68 19q-37 17 -87 19q-51 0 -81 -31q-30 -30 -34 -86h74q4 18 15 27q11 8 28 8q32 -2 69 -20q37 -17 87 -20v0zM281 0h153v277l292 423h-175l-192 -296h-2l-192 296h-175l291 -423v-277z" />
    <glyph glyph-name="uni1EF9" unicode="&#x1ef9;" horiz-adv-x="649" 
d="M405 585q49 0 80 30q30 30 34 87h-74q-8 -33 -43 -33q-32 2 -68 19q-37 17 -87 19q-51 0 -81 -31q-30 -30 -34 -86h74q4 18 15 27q11 8 28 8q32 -2 69 -20q37 -17 87 -20v0zM119 -225h163l367 755h-164l-159 -346h-2l-161 346h-163l245 -501z" />
    <glyph glyph-name="uni2002" unicode="&#x2002;" horiz-adv-x="750" 
 />
    <glyph glyph-name="uni2003" unicode="&#x2003;" horiz-adv-x="1000" 
 />
    <glyph glyph-name="uni2004" unicode="&#x2004;" horiz-adv-x="350" 
 />
    <glyph glyph-name="uni2005" unicode="&#x2005;" horiz-adv-x="250" 
 />
    <glyph glyph-name="uni2007" unicode="&#x2007;" 
 />
    <glyph glyph-name="uni2008" unicode="&#x2008;" horiz-adv-x="323" 
 />
    <glyph glyph-name="uni2009" unicode="&#x2009;" horiz-adv-x="150" 
 />
    <glyph glyph-name="uni200A" unicode="&#x200a;" horiz-adv-x="75" 
 />
    <glyph glyph-name="uni200B" unicode="&#x200b;" horiz-adv-x="0" 
 />
    <glyph glyph-name="endash" unicode="&#x2013;" horiz-adv-x="559" 
d="M39 224h480v135h-480v-135z" />
    <glyph glyph-name="emdash" unicode="&#x2014;" horiz-adv-x="844" 
d="M39 224h765v135h-765v-135z" />
    <glyph glyph-name="quoteleft" unicode="&#x2018;" horiz-adv-x="283" 
d="M218 700q-79 -9 -119 -51q-40 -41 -40 -115v-131h165v149h-59q-1 31 11 48t42 25v75z" />
    <glyph glyph-name="quoteright" unicode="&#x2019;" horiz-adv-x="283" 
d="M65 403q79 9 119 51q40 41 40 115v131h-165v-149h59q1 -31 -11 -48q-12 -16 -42 -25v-75z" />
    <glyph glyph-name="quotesinglbase" unicode="&#x201a;" horiz-adv-x="323" 
d="M85 -148q79 9 119 51q40 41 40 115v131h-165v-149h59q1 -31 -11 -48q-12 -16 -42 -25v-75z" />
    <glyph glyph-name="quotedblleft" unicode="&#x201c;" horiz-adv-x="543" 
d="M238 700q-79 -9 -119 -51q-40 -41 -40 -115v-131h165v149h-59q-1 31 11 48t42 25v75zM458 700q-79 -9 -119 -51q-40 -41 -40 -115v-131h165v149h-59q-1 31 11 48t42 25v75z" />
    <glyph glyph-name="quotedblright" unicode="&#x201d;" horiz-adv-x="543" 
d="M85 403q79 9 119 51q40 41 40 115v131h-165v-149h59q1 -31 -11 -48q-12 -16 -42 -25v-75zM305 403q79 9 119 51q40 41 40 115v131h-165v-149h59q1 -31 -11 -48q-12 -16 -42 -25v-75z" />
    <glyph glyph-name="quotedblbase" unicode="&#x201e;" horiz-adv-x="543" 
d="M85 -148q79 9 119 51q40 41 40 115v131h-165v-149h59q1 -31 -11 -48q-12 -16 -42 -25v-75zM305 -148q79 9 119 51q40 41 40 115v131h-165v-149h59q1 -31 -11 -48q-12 -16 -42 -25v-75z" />
    <glyph glyph-name="dagger" unicode="&#x2020;" horiz-adv-x="667" 
d="M259 -196h148v588h221v138h-221v229h-148v-229h-220v-138h220v-588z" />
    <glyph glyph-name="daggerdbl" unicode="&#x2021;" horiz-adv-x="667" 
d="M259 -196h148v219h221v137h-221v232h221v138h-221v229h-148v-229h-220v-138h220v-232h-220v-137h220v-219z" />
    <glyph glyph-name="bullet" unicode="&#x2022;" horiz-adv-x="411" 
d="M205 241q58 1 92 37t35 91q-1 57 -35 92t-92 36q-57 -1 -91 -36t-35 -92q1 -55 35 -91t91 -37v0z" />
    <glyph glyph-name="ellipsis" unicode="&#x2026;" horiz-adv-x="871" 
d="M79 0h165v160h-165v-160zM353 0h165v160h-165v-160zM626 0h165v160h-165v-160z" />
    <glyph glyph-name="perthousand" unicode="&#x2030;" horiz-adv-x="1603" 
d="M382 -90l498 815l-111 62l-497 -815zM259 271q94 2 151 62q56 59 58 157q-2 98 -58 158q-57 59 -151 61q-94 -2 -151 -61q-57 -60 -59 -158q2 -98 59 -157q57 -60 151 -62v0zM259 378q-44 1 -67 30q-23 30 -23 82t23 82t67 31q43 -1 66 -31t23 -82t-23 -82
q-23 -29 -66 -30v0zM884 -9q94 2 151 62q56 59 58 157q-2 98 -58 158q-57 59 -151 61q-94 -2 -151 -61q-56 -60 -58 -158q2 -98 58 -157q57 -60 151 -62v0zM1344 -9q94 2 151 62q56 59 58 157q-2 98 -58 158q-57 59 -151 61q-94 -2 -151 -61q-56 -60 -58 -158q2 -98 58 -157
q57 -60 151 -62v0zM884 98q-43 1 -66 30q-24 30 -24 82t24 82q23 30 66 31q43 -1 66 -31q24 -30 24 -82t-24 -82q-23 -29 -66 -30v0zM1344 98q-43 1 -66 30q-24 30 -24 82t24 82q23 30 66 31q43 -1 66 -31q24 -30 24 -82t-24 -82q-23 -29 -66 -30v0z" />
    <glyph glyph-name="guilsinglleft" unicode="&#x2039;" horiz-adv-x="342" 
d="M172 82h121l-114 193l114 193h-121l-113 -193z" />
    <glyph glyph-name="guilsinglright" unicode="&#x203a;" horiz-adv-x="342" 
d="M170 82l113 193l-113 193h-121l114 -193l-114 -193h121z" />
    <glyph glyph-name="fraction" unicode="&#x2044;" horiz-adv-x="215" 
d="M-88 -82l484 801l-93 55l-484 -802z" />
    <glyph glyph-name="uni207A" unicode="&#x207a;" horiz-adv-x="429" 
d="M380 251h-120v125h-91v-125h-120v-84h120v-130h91v130h120v84z" />
    <glyph glyph-name="uni207B" unicode="&#x207b;" horiz-adv-x="389" 
d="M49 167h290v84h-290v-84z" />
    <glyph glyph-name="lira" unicode="&#x20a4;" horiz-adv-x="683" 
d="M511 365q-1 -104 -59 -167q-59 -62 -156 -64v208l197 72l-37 100l-160 -58v59l197 72l-37 100l-160 -58v71h-153v-127l-114 -41l37 -101l77 28v-58l-114 -41l37 -101l77 28v-287h153q164 3 265 103q100 99 103 262h-153z" />
    <glyph glyph-name="uni20A8" unicode="&#x20a8;" horiz-adv-x="651" 
d="M622 611v89h-573v-129h231q47 0 75 -13q27 -12 37 -40h-343v-86h339q-12 -25 -39 -37q-27 -13 -67 -13h-233v-129h156l162 -253h174l-171 259v2q72 15 116 60q44 44 56 111h80v86h-80q-12 52 -49 91v2h129z" />
    <glyph glyph-name="uni20A9" unicode="&#x20a9;" horiz-adv-x="1114" 
d="M1104 444v89h-77l42 167h-147l-40 -167h-201l-60 167h-128l-60 -167h-201l-40 167h-146l41 -167h-77v-89h99l15 -60h-114v-88h136l73 -296h151l111 296h152l111 -296h151l74 296h135v88h-114l15 60h99zM254 444h148l-22 -60h-111zM514 384l23 60h41l22 -60h-86zM846 384
h-112l-21 60h147zM315 201h-2l-23 95h59zM802 201h-2l-34 95h59z" />
    <glyph glyph-name="Euro" unicode="&#x20ac;" horiz-adv-x="870" 
d="M700 274q-18 -75 -71 -116q-52 -41 -131 -42q-66 0 -117 28q-50 28 -79 79h178v107h-208q-1 5 -1 10v10q0 15 1 28h267v107h-232q30 46 79 72t112 26q76 0 127 -38q52 -38 73 -109l141 35q-27 114 -118 179q-91 64 -223 65q-130 -1 -222 -63q-93 -61 -133 -167h-118v-107
h96q-1 -7 -1 -14v-14v-20h-95v-107h115q39 -109 133 -173q93 -64 225 -65q136 1 227 68t116 185z" />
    <glyph glyph-name="uni20BD" unicode="&#x20bd;" horiz-adv-x="795" 
d="M497 700h-368v-366h-100v-92h100v-59h-100v-92h100v-91h153v91h214v92h-214v59h215q116 1 187 61q70 59 72 168q-2 108 -74 168t-185 61v0zM488 376h-206v190h206q56 0 85 -22q30 -23 30 -72q-1 -47 -33 -71q-31 -25 -82 -25v0z" />
    <glyph glyph-name="uni2116" unicode="&#x2116;" horiz-adv-x="1254" 
d="M1001 271q97 2 153 63q55 61 56 156q-1 95 -56 156q-56 61 -153 63q-97 -2 -152 -63t-56 -156q1 -95 56 -156t152 -63v0zM69 0h153v486h2l329 -486h166v700h-153v-485h-2l-328 485h-167v-700zM1001 381q-42 1 -65 30t-23 79t23 79t65 30q42 -1 66 -30q23 -29 23 -79
t-23 -79q-24 -29 -66 -30v0zM793 104h417v124h-417v-124z" />
    <glyph glyph-name="uni2117" unicode="&#x2117;" horiz-adv-x="694" 
d="M347 16q137 3 222 88q84 86 86 219q-2 133 -86 219t-222 89q-137 -3 -221 -89q-85 -86 -87 -219q2 -133 87 -219q84 -85 221 -88v0zM347 87q-104 2 -167 69q-63 66 -65 167q2 101 65 168q63 66 167 69q104 -3 167 -69q63 -67 65 -168q-2 -99 -65 -166q-64 -67 -167 -70v0
zM246 150h84v106h51q57 0 88 30q32 29 32 87q-1 59 -32 89t-86 30h-137v-342zM330 326v95h39q24 0 36 -12q12 -11 12 -36q0 -27 -11 -37t-39 -10h-37z" />
    <glyph glyph-name="trademark" unicode="&#x2122;" horiz-adv-x="831" 
d="M127 361h102v247h98v92h-298v-92h98v-247zM370 361h96v182h1l84 -182h60l84 182h1v-182h96v339h-115l-95 -218h-1l-96 218h-115v-339z" />
    <glyph glyph-name="oneeighth" unicode="&#x215b;" horiz-adv-x="995" 
d="M247 -82l484 801l-93 55l-484 -802zM163 280h107v420h-99l-152 -79v-107l144 76v-310zM773 -9q95 2 146 40t52 93q-1 38 -23 67q-23 28 -55 42v1q22 11 37 32q14 20 15 47q-2 53 -49 84q-48 31 -123 32q-76 -1 -124 -32q-47 -31 -49 -84q1 -27 15 -47q15 -21 37 -32v-1
q-32 -14 -55 -42q-22 -29 -23 -67q1 -55 52 -93q52 -38 147 -40v0zM773 263q-33 0 -52 12q-20 11 -20 31t20 32q19 11 52 11t52 -11q19 -12 19 -32t-19 -31q-19 -12 -52 -12v0zM773 81q-45 0 -67 15q-22 14 -22 39t23 40t66 15q42 0 66 -15q23 -15 23 -40t-22 -39
q-23 -15 -67 -15v0z" />
    <glyph glyph-name="threeeighths" unicode="&#x215c;" horiz-adv-x="1086" 
d="M338 -82l484 801l-93 55l-484 -802zM220 271q84 1 133 36q48 36 49 98q0 34 -16 59q-17 25 -47 39v1q23 13 35 33q12 19 12 44q-1 58 -48 93q-47 34 -123 35q-76 -1 -125 -36q-49 -36 -63 -99l100 -18q7 30 30 47t58 17q31 0 49 -12t18 -32t-15 -30q-16 -10 -45 -10h-48
v-80h54q36 0 52 -10q16 -11 16 -34q0 -24 -20 -37q-20 -14 -56 -14q-38 0 -63 20q-24 19 -33 59l-105 -23q13 -69 66 -107t135 -39v0zM864 -9q95 2 146 40t52 93q-1 38 -23 67q-23 28 -55 42v1q22 11 37 32q14 20 15 47q-2 53 -49 84q-48 31 -123 32q-76 -1 -124 -32
q-47 -31 -49 -84q1 -27 15 -47q15 -21 37 -32v-1q-32 -14 -55 -42q-22 -29 -23 -67q1 -55 52 -93q52 -38 147 -40v0zM864 263q-33 0 -52 12q-20 11 -20 31t20 32q19 11 52 11t52 -11q19 -12 19 -32t-19 -31q-19 -12 -52 -12v0zM864 81q-45 0 -67 15q-22 14 -22 39t23 40
t66 15q42 0 66 -15q23 -15 23 -40t-22 -39q-23 -15 -67 -15v0z" />
    <glyph glyph-name="fiveeighths" unicode="&#x215d;" horiz-adv-x="1101" 
d="M353 -82l484 801l-93 55l-484 -802zM225 271q87 2 138 45q52 43 53 109q-1 64 -49 103q-49 39 -130 40q-54 0 -96 -19l-1 1l14 59h216v91h-295l-46 -220l91 -26q20 17 46 27q25 10 58 10q40 0 63 -18q23 -17 24 -47q-1 -27 -25 -44t-62 -18q-40 0 -67 15t-46 47l-87 -53
q26 -45 77 -73q50 -28 124 -29v0zM879 -9q95 2 146 40t52 93q-1 38 -23 67q-23 28 -55 42v1q22 11 37 32q14 20 15 47q-2 53 -49 84q-48 31 -123 32q-76 -1 -124 -32q-47 -31 -49 -84q1 -27 15 -47q15 -21 37 -32v-1q-32 -14 -55 -42q-22 -29 -23 -67q1 -55 52 -93
q52 -38 147 -40v0zM879 263q-33 0 -52 12q-20 11 -20 31t20 32q19 11 52 11t52 -11q19 -12 19 -32t-19 -31q-19 -12 -52 -12v0zM879 81q-45 0 -67 15q-22 14 -22 39t23 40t66 15q42 0 66 -15q23 -15 23 -40t-22 -39q-23 -15 -67 -15v0z" />
    <glyph glyph-name="seveneighths" unicode="&#x215e;" horiz-adv-x="987" 
d="M239 -82l484 801l-93 55l-484 -802zM49 280h126l188 338v82h-363v-94h234v-1zM765 -9q95 2 146 40t52 93q-1 38 -23 67q-23 28 -55 42v1q22 11 37 32q14 20 15 47q-2 53 -49 84q-48 31 -123 32q-76 -1 -124 -32q-47 -31 -49 -84q1 -27 15 -47q15 -21 37 -32v-1
q-32 -14 -55 -42q-22 -29 -23 -67q1 -55 52 -93q52 -38 147 -40v0zM765 263q-33 0 -52 12q-20 11 -20 31t20 32q19 11 52 11t52 -11q19 -12 19 -32t-19 -31q-19 -12 -52 -12v0zM765 81q-45 0 -67 15q-22 14 -22 39t23 40t66 15q42 0 66 -15q23 -15 23 -40t-22 -39
q-23 -15 -67 -15v0z" />
    <glyph glyph-name="arrowleft" unicode="&#x2190;" horiz-adv-x="736" 
d="M698 410h-411l145 129l-94 94l-299 -287l299 -287l94 94l-144 128h410v129z" />
    <glyph glyph-name="arrowup" unicode="&#x2191;" horiz-adv-x="650" 
d="M612 381l-287 299l-286 -299l96 -97l121 138v-402h138v402l121 -138z" />
    <glyph glyph-name="arrowright" unicode="&#x2192;" horiz-adv-x="736" 
d="M399 633l-94 -94l145 -129h-411v-129h410l-144 -128l94 -94l299 287z" />
    <glyph glyph-name="arrowdown" unicode="&#x2193;" horiz-adv-x="650" 
d="M515 417l-121 -138v402h-138v-402l-121 138l-96 -97l286 -299l287 299z" />
    <glyph glyph-name="arrowboth" unicode="&#x2194;" horiz-adv-x="965" 
d="M628 632l-90 -89l151 -135h-412l150 135l-90 89l-298 -286l298 -287l90 90l-149 134h410l-150 -134l90 -90l299 287z" />
    <glyph glyph-name="arrowupdn" unicode="&#x2195;" horiz-adv-x="651" 
d="M389 162v376l130 -146l94 94l-287 298l-286 -298l93 -94l131 147v-378l-131 147l-94 -94l287 -300l287 299l-94 95z" />
    <glyph glyph-name="uni2196" unicode="&#x2196;" horiz-adv-x="591" 
d="M552 188l-294 292l195 -11v127l-414 9l9 -415l127 1l-11 202l295 -300z" />
    <glyph glyph-name="uni2197" unicode="&#x2197;" horiz-adv-x="591" 
d="M39 188l93 -95l295 300l-11 -202l127 -1l9 415l-414 -9v-127l195 11z" />
    <glyph glyph-name="uni2198" unicode="&#x2198;" horiz-adv-x="591" 
d="M39 510l294 -292l-195 11v-127l414 -9l-9 415l-127 -1l11 -202l-295 300z" />
    <glyph glyph-name="uni2199" unicode="&#x2199;" horiz-adv-x="591" 
d="M552 513l-93 95l-295 -300l11 202l-127 1l-9 -415l414 9v127l-195 -11z" />
    <glyph glyph-name="uni21B3" unicode="&#x21b3;" horiz-adv-x="770" 
d="M433 633l-94 -94l145 -129h-260v286h-135v-415h394l-144 -128l94 -94l299 287z" />
    <glyph glyph-name="partialdiff" unicode="&#x2202;" horiz-adv-x="582" 
d="M282 788q-55 0 -101 -23q-47 -24 -87 -66l90 -98q24 26 47 38q22 13 46 13q53 0 83 -42q31 -42 38 -131q-34 13 -69 18q-34 6 -69 6q-109 -1 -169 -73q-61 -72 -62 -201q1 -114 65 -179t175 -66q141 0 213 107q71 106 71 317q-1 179 -72 279q-70 99 -199 101v0zM270 123
q-44 0 -67 27q-23 26 -23 78q0 71 27 108q27 36 79 36q24 0 53 -7t60 -20q-7 -110 -39 -166t-90 -56v0z" />
    <glyph glyph-name="emptyset" unicode="&#x2205;" horiz-adv-x="855" 
d="M715 601l89 101l-78 63l-90 -103q-45 26 -98 39q-52 14 -110 14q-169 -3 -277 -103t-112 -262q0 -75 26 -139t74 -112l-87 -99l78 -64l89 102q45 -26 98 -39q52 -14 111 -14q169 3 277 103q107 100 111 262q0 75 -27 139q-26 64 -74 112v0zM197 350q2 106 65 168
q62 61 166 62q32 0 60 -6q28 -7 53 -19l-303 -344q-20 28 -30 63q-11 35 -11 76v0zM428 120q-32 0 -60 7q-29 6 -54 18l304 345q20 -28 30 -63q11 -36 11 -77q-2 -106 -64 -167q-63 -62 -167 -63v0z" />
    <glyph glyph-name="product" unicode="&#x220f;" horiz-adv-x="805" 
d="M156 -141h153v706h187v-706h153v706h132v135h-757v-135h132v-706z" />
    <glyph glyph-name="summation" unicode="&#x2211;" horiz-adv-x="622" 
d="M54 -100h534v136h-320l229 264l-229 264h320v136h-534v-121l246 -279l-246 -279v-121z" />
    <glyph glyph-name="minus" unicode="&#x2212;" horiz-adv-x="559" 
d="M49 306h460v116h-460v-116z" />
    <glyph glyph-name="radical" unicode="&#x221a;" horiz-adv-x="716" 
d="M541 700l-192 -497h-2l-89 233h-249v-136h143l125 -300h147l288 700h-171z" />
    <glyph glyph-name="infinity" unicode="&#x221e;" horiz-adv-x="703" 
d="M223 101q36 1 71 20q36 19 58 51q22 -32 57 -51q36 -19 72 -20q76 2 124 57q48 56 49 145q-1 89 -49 145q-48 55 -124 57q-36 0 -72 -20q-35 -19 -57 -51q-22 32 -58 51q-35 20 -71 20q-77 -2 -125 -57q-48 -56 -49 -145q1 -89 49 -145q48 -55 125 -57v0zM233 215
q-33 0 -51 23t-18 65t18 66q18 23 51 23q30 0 52 -22q21 -23 31 -67q-10 -44 -31 -66q-22 -22 -52 -22v0zM470 215q-30 0 -51 22t-32 66q11 44 32 67q21 22 51 22q33 0 51 -23q18 -24 18 -66t-18 -65t-51 -23v0z" />
    <glyph glyph-name="integral" unicode="&#x222b;" horiz-adv-x="476" 
d="M49 -240q140 -1 201 54q61 56 60 186v510q-1 53 26 77q27 23 91 23v135q-145 1 -208 -54q-63 -56 -62 -186v-510q1 -53 -24 -77q-25 -23 -84 -23v-135z" />
    <glyph glyph-name="approxequal" unicode="&#x2248;" horiz-adv-x="683" 
d="M174 376q12 37 28 56q15 18 34 18q36 -5 90 -37t123 -37q69 0 115 42q46 41 69 119l-125 47q-12 -37 -27 -55q-16 -18 -35 -18q-36 5 -90 37q-54 31 -123 36q-69 0 -115 -41t-69 -120zM174 129q12 37 28 56q15 18 34 18q36 -5 90 -37t123 -37q69 0 115 42q46 41 69 119
l-125 47q-12 -37 -27 -55q-16 -18 -35 -18q-36 5 -90 37q-54 31 -123 36q-69 0 -115 -41t-69 -120z" />
    <glyph glyph-name="notequal" unicode="&#x2260;" horiz-adv-x="565" 
d="M515 386v117h-98l45 79l-67 41l-68 -120h-278v-117h211l-45 -80h-166v-118h99l-45 -79l68 -41l68 120h276v118h-209l45 80h164z" />
    <glyph glyph-name="lessequal" unicode="&#x2264;" horiz-adv-x="554" 
d="M438 145l61 101l-294 169l294 169l-61 101l-389 -230v-81zM505 0v119h-456v-119h456z" />
    <glyph glyph-name="greaterequal" unicode="&#x2265;" horiz-adv-x="554" 
d="M116 145l389 229v81l-389 230l-61 -101l294 -169l-294 -169zM49 0h456v119h-456v-119z" />
    <glyph glyph-name="lozenge" unicode="&#x25ca;" horiz-adv-x="715" 
d="M282 0h152l232 350l-232 350h-152l-233 -350zM358 118l-154 232l154 232l154 -232z" />
    <glyph glyph-name="uniF8FF" unicode="&#xf8ff;" horiz-adv-x="686" 
d="M50 0h26l66 65l67 -65l63 65l69 -65l71 65l63 -65l68 65l65 -65h28v423q-3 122 -87 205q-84 84 -207 87q-121 -3 -205 -87q-83 -83 -87 -205v-423zM216 307q-30 1 -50 21t-21 49q1 31 21 51t50 21q31 -1 51 -21q19 -20 20 -51q-1 -30 -21 -50q-20 -19 -50 -20v0zM470 307
q-29 1 -49 21t-21 49q1 31 20 51q20 20 50 21q31 -1 51 -21t21 -51q-1 -29 -21 -49q-21 -20 -51 -21v0z" />
    <glyph glyph-name="uniFB01" unicode="&#xfb01;" horiz-adv-x="685" 
d="M635 762h-145v-140h145v140zM638 530h-378v36q0 41 44 41h111v127h-129q-82 -1 -128 -40q-45 -40 -46 -110v-54h-107v-126h107v-404h148v404h235v-404h143v530z" />
    <glyph glyph-name="uniFB02" unicode="&#xfb02;" horiz-adv-x="692" 
d="M495 730v-200h-235v36q0 41 44 41h111v127h-129q-82 -1 -128 -40q-45 -40 -46 -110v-54h-107v-126h107v-404h148v404h235v-404h148v730h-148z" />
    <glyph glyph-name="uniFEFF" unicode="&#xfeff;" horiz-adv-x="0" 
 />
    <glyph glyph-name="glyph224" horiz-adv-x="247" 
d="M46 617h153v148h-153v-148zM49 0h148v530h-148v-530z" />
    <glyph glyph-name="glyph326" horiz-adv-x="300" 
d="M115 417q29 0 51 9q22 8 34 23h1v-25h74v175q-1 51 -34 79q-34 29 -94 29q-54 -1 -91 -25q-36 -25 -46 -68l77 -17q6 21 23 32q16 11 40 11q20 0 32 -5q11 -5 11 -16q1 -9 -12 -15t-48 -13q-65 -13 -94 -34t-28 -57q1 -39 28 -61q28 -22 76 -22v0zM131 482q-20 0 -30 5
q-10 6 -10 17q-1 12 12 19t47 15q21 5 32 10q10 4 13 9h1v-28q0 -19 -17 -33q-18 -13 -48 -14v0z" />
    <glyph glyph-name="glyph327" horiz-adv-x="352" 
d="M196 707q-24 0 -44 -6q-21 -7 -35 -18h-1v121h-91v-380h86v21h1q14 -14 36 -21q21 -7 48 -7q65 1 105 41q40 39 41 104q-1 65 -41 104q-40 40 -105 41v0zM181 496q-30 1 -47 16q-18 14 -18 36v27q0 22 18 37q17 15 47 16q33 0 52 -18q18 -17 18 -48t-18 -48
q-19 -18 -52 -18v0z" />
    <glyph glyph-name="glyph328" horiz-adv-x="323" 
d="M166 417q54 1 95 27q40 26 52 72l-86 23q-7 -21 -22 -32t-39 -11q-30 0 -47 18q-18 18 -18 48t18 48q17 18 47 18q24 0 39 -11t22 -32l86 23q-12 46 -52 72q-41 26 -95 27q-70 -1 -112 -40q-43 -39 -44 -105q1 -65 44 -105q42 -39 112 -40v0z" />
    <glyph glyph-name="glyph329" horiz-adv-x="352" 
d="M156 707q-65 -1 -105 -41q-40 -39 -41 -104q1 -65 41 -104q40 -40 105 -41q27 0 48 7q22 7 36 21h1v-21h86v380h-91v-121h-1q-14 11 -35 18q-20 6 -44 6v0zM171 496q-33 0 -51 18q-19 17 -19 48t19 48q18 18 51 18q30 -1 47 -16q18 -15 18 -37v-27q0 -22 -18 -36
q-17 -15 -47 -16v0z" />
    <glyph glyph-name="glyph330" horiz-adv-x="329" 
d="M319 560q-1 66 -42 106q-42 40 -112 41q-69 -1 -111 -41q-43 -40 -44 -104q1 -67 44 -105q43 -39 117 -40q41 0 75 12q34 11 61 32l-42 59q-22 -17 -45 -25q-23 -9 -46 -9q-27 0 -46 13q-20 12 -26 33h217v28zM101 591q4 22 21 34q17 13 43 13q27 0 44 -13q17 -12 21 -34
h-129z" />
    <glyph glyph-name="glyph331" horiz-adv-x="243" 
d="M61 424h91v200h91v76h-91v20q0 9 5 15q6 5 16 5h54v75h-67q-48 0 -73 -23q-26 -22 -26 -66v-26h-61v-76h61v-200z" />
    <glyph glyph-name="glyph332" horiz-adv-x="357" 
d="M175 296q72 1 114 39q42 39 43 105v260h-86v-24h-1q-15 14 -37 23q-23 8 -50 8q-66 -1 -107 -41q-40 -40 -41 -103q1 -65 42 -104q40 -39 107 -40q29 0 50 8q21 7 35 21h1v-18q0 -29 -19 -44q-18 -16 -51 -16q-27 0 -49 10t-46 32l-54 -56q59 -60 149 -60v0zM173 494
q-34 0 -53 19q-19 18 -19 51q0 32 19 50t53 18q30 0 49 -13q18 -14 19 -35v-39q0 -23 -19 -37q-18 -14 -49 -14v0z" />
    <glyph glyph-name="glyph333" horiz-adv-x="365" 
d="M25 424h91v139q0 30 19 48q19 17 50 17q34 0 51 -17q18 -16 18 -46v-141h92v157q-1 56 -37 91q-36 34 -98 35q-30 0 -54 -9q-23 -8 -40 -24h-1v130h-91v-380z" />
    <glyph glyph-name="glyph334" horiz-adv-x="140" 
d="M25 747h91v86h-91v-86zM25 424h91v276h-91v-276z" />
    <glyph glyph-name="glyph335" horiz-adv-x="141" 
d="M25 747h91v86h-91v-86zM-50 303h57q54 0 82 25q27 25 27 77v294h-91v-286q0 -13 -6 -18q-6 -6 -19 -6h-50v-86z" />
    <glyph glyph-name="glyph336" horiz-adv-x="344" 
d="M25 424h91v78l40 35h1l85 -113h107l-131 167l125 109h-124l-102 -94h-1v198h-91v-380z" />
    <glyph glyph-name="glyph337" horiz-adv-x="140" 
d="M25 424h91v380h-91v-380z" />
    <glyph glyph-name="glyph338" horiz-adv-x="547" 
d="M25 424h91v152q0 24 16 38t42 14q27 0 43 -14q15 -14 15 -38v-152h89v152q0 24 16 38q15 14 42 14t42 -14q16 -14 16 -38v-152h91v167q-1 52 -36 84q-35 31 -96 32q-32 0 -58 -10q-26 -11 -41 -28h-1q-14 17 -39 28q-26 10 -57 10q-26 0 -49 -9q-22 -9 -37 -27h-1v29h-88
v-276z" />
    <glyph glyph-name="glyph339" horiz-adv-x="365" 
d="M25 424h91v139q0 30 19 48q19 17 50 17q34 0 51 -17q18 -16 18 -46v-141h92v157q-1 56 -37 90q-36 35 -98 36q-31 0 -56 -9q-25 -10 -42 -27h-1v29h-87v-276z" />
    <glyph glyph-name="glyph340" horiz-adv-x="338" 
d="M169 417q70 1 114 40q44 40 45 105q-1 66 -45 105t-114 40q-70 -1 -114 -40t-45 -105q1 -65 45 -105q44 -39 114 -40v0zM169 496q-32 0 -50 18t-18 48t18 48t50 18t50 -18t18 -48t-18 -48t-50 -18v0z" />
    <glyph glyph-name="glyph341" horiz-adv-x="353" 
d="M196 707q-26 0 -48 -7t-36 -21h-1v21h-86v-397h91v138h1q15 -12 35 -18q21 -6 44 -6q65 1 106 41q41 39 42 104q-1 65 -42 104q-41 40 -106 41v0zM181 496q-30 1 -47 16q-18 14 -18 36v27q0 22 18 37q17 15 47 16q33 0 52 -18q18 -17 18 -48t-18 -48q-19 -18 -52 -18v0z
" />
    <glyph glyph-name="glyph342" horiz-adv-x="353" 
d="M157 707q-65 -1 -106 -41q-41 -39 -42 -104q1 -65 42 -104q41 -40 106 -41q24 0 44 6q21 6 35 18h1v-138h91v397h-86v-21h-1q-14 14 -36 21t-48 7v0zM172 496q-33 0 -51 18q-19 17 -19 48t19 48q18 18 51 18q30 -1 47 -16q18 -15 18 -37v-27q0 -22 -18 -36
q-17 -15 -47 -16v0z" />
    <glyph glyph-name="glyph343" horiz-adv-x="235" 
d="M186 704q-24 0 -43 -7t-32 -21h-1v24h-85v-276h91v99q0 50 17 73q17 22 55 22q8 0 16 -1q7 -1 18 -3l19 83q-14 3 -28 5t-27 2v0z" />
    <glyph glyph-name="glyph344" horiz-adv-x="334" 
d="M178 417q62 1 98 25q37 24 38 65q1 36 -31 57q-31 21 -103 33q-36 6 -49 12q-14 5 -13 13q0 9 11 15q12 5 32 5q25 0 41 -10q16 -9 25 -29l79 23q-15 39 -53 60t-92 21q-59 -1 -95 -24q-35 -23 -36 -62q-1 -34 29 -54q30 -19 98 -31q41 -7 57 -14q15 -7 14 -18
q0 -9 -14 -15q-13 -6 -35 -6q-33 0 -52 12t-28 38l-79 -25q12 -43 52 -67q41 -24 106 -24v0z" />
    <glyph glyph-name="glyph345" horiz-adv-x="232" 
d="M232 622v79h-86v70h-91v-70h-55v-79h55v-98q0 -52 27 -76t85 -24h59v85h-53q-15 0 -21 5t-6 18v90h86z" />
    <glyph glyph-name="glyph346" horiz-adv-x="355" 
d="M239 700v-139q0 -30 -17 -47q-17 -18 -47 -18q-32 0 -48 15q-16 14 -16 44v145h-91v-151q1 -62 35 -97q34 -34 95 -35q29 0 53 9q24 10 40 27h1v-29h87v276h-92z" />
    <glyph glyph-name="glyph347" horiz-adv-x="361" 
d="M138 425h85l134 275h-102l-74 -171h-1l-74 171h-101z" />
    <glyph glyph-name="glyph348" horiz-adv-x="518" 
d="M89 424h94l75 175h1l76 -175h93l85 276h-97l-46 -162h-1l-69 162h-82l-69 -162h-1l-46 162h-97z" />
    <glyph glyph-name="glyph349" horiz-adv-x="365" 
d="M5 424h108l69 85h1l69 -85h109l-123 141l118 135h-110l-63 -79h-1l-63 79h-110l118 -135z" />
    <glyph glyph-name="glyph350" horiz-adv-x="357" 
d="M256 700l-76 -165h-1l-78 165h-96l127 -253l-72 -144h97l195 397h-96z" />
    <glyph glyph-name="glyph351" horiz-adv-x="317" 
d="M5 424h307v76h-177v1l172 133v66h-298v-76h167v-1l-171 -133v-66z" />
    <glyph glyph-name="glyph352" horiz-adv-x="652" 
d="M458 530v-37h-2q-27 24 -66 38t-87 14q-123 -2 -197 -78q-75 -76 -77 -202q2 -126 77 -202q74 -76 197 -78q48 0 88 14q39 14 65 38h2v-37h144v530h-144zM320 116q-66 1 -104 40t-39 109q1 71 39 110t104 40q59 -1 96 -34t38 -83v-66q-1 -49 -38 -82t-96 -34v0z" />
    <glyph glyph-name="glyph353" horiz-adv-x="652" 
d="M255 605h118l136 138h-153zM458 530v-37h-2q-27 24 -66 38t-87 14q-123 -2 -197 -78q-75 -76 -77 -202q2 -126 77 -202q74 -76 197 -78q48 0 88 14q39 14 65 38h2v-37h144v530h-144zM320 116q-66 1 -104 40t-39 109q1 71 39 110t104 40q59 -1 96 -34t38 -83v-66
q-1 -49 -38 -82t-96 -34v0z" />
    <glyph glyph-name="glyph354" horiz-adv-x="652" 
d="M332 595q70 1 114 37q43 37 51 102h-78q-7 -23 -30 -37q-23 -13 -57 -13t-57 13q-23 14 -31 37h-77q8 -65 51 -102q44 -36 114 -37v0zM458 530v-37h-2q-27 24 -66 38t-87 14q-123 -2 -197 -78q-75 -76 -77 -202q2 -126 77 -202q74 -76 197 -78q48 0 88 14q39 14 65 38h2
v-37h144v530h-144zM320 116q-66 1 -104 40t-39 109q1 71 39 110t104 40q59 -1 96 -34t38 -83v-66q-1 -49 -38 -82t-96 -34v0z" />
    <glyph glyph-name="glyph355" horiz-adv-x="652" 
d="M405 595l78 82l-70 63l-82 -88l-83 88l-69 -63l78 -82h148zM458 530v-37h-2q-27 24 -66 38t-87 14q-123 -2 -197 -78q-75 -76 -77 -202q2 -126 77 -202q74 -76 197 -78q48 0 88 14q39 14 65 38h2v-37h144v530h-144zM454 232q-1 -49 -38 -82t-96 -34q-66 1 -104 40
t-39 109q1 71 39 110t104 40q59 -1 96 -34t38 -83v-66z" />
    <glyph glyph-name="glyph356" horiz-adv-x="652" 
d="M331 674l82 -89l70 63l-78 82h-148l-78 -82l69 -63zM458 530v-37h-2q-27 24 -66 38t-87 14q-123 -2 -197 -78q-75 -76 -77 -202q2 -126 77 -202q74 -76 197 -78q48 0 88 14q39 14 65 38h2v-37h144v530h-144zM454 232q-1 -49 -38 -82t-96 -34q-66 1 -104 40t-39 109
q1 71 39 110t104 40q59 -1 96 -34t38 -83v-66z" />
    <glyph glyph-name="glyph357" horiz-adv-x="652" 
d="M331 674l82 -89l70 63l-78 82h-148l-78 -82l69 -63zM458 530v-37h-2q-27 24 -66 38t-87 14q-123 -2 -197 -78q-75 -76 -77 -202q2 -126 77 -202q74 -76 197 -78q48 0 88 14q39 14 65 38h2v-37h144v530h-144zM454 232q-1 -49 -38 -82t-96 -34q-66 1 -104 40t-39 109
q1 71 39 110t104 40q59 -1 96 -34t38 -83v-66zM266 -192h129v127h-129v-127z" />
    <glyph glyph-name="glyph358" horiz-adv-x="652" 
d="M157 595h130v128h-130v-128zM374 595h130v128h-130v-128zM458 530v-37h-2q-27 24 -66 38t-87 14q-123 -2 -197 -78q-75 -76 -77 -202q2 -126 77 -202q74 -76 197 -78q48 0 88 14q39 14 65 38h2v-37h144v530h-144zM320 116q-66 1 -104 40t-39 109q1 71 39 110t104 40
q59 -1 96 -34t38 -83v-66q-1 -49 -38 -82t-96 -34v0z" />
    <glyph glyph-name="glyph359" horiz-adv-x="652" 
d="M156 763h349v87h-349v-87zM157 595h130v128h-130v-128zM374 595h130v128h-130v-128zM458 530v-37h-2q-27 24 -66 38t-87 14q-123 -2 -197 -78q-75 -76 -77 -202q2 -126 77 -202q74 -76 197 -78q48 0 88 14q39 14 65 38h2v-37h144v530h-144zM320 116q-66 1 -104 40
t-39 109q1 71 39 110t104 40q59 -1 96 -34t38 -83v-66q-1 -49 -38 -82t-96 -34v0z" />
    <glyph glyph-name="glyph360" horiz-adv-x="652" 
d="M458 530v-37h-2q-27 24 -66 38t-87 14q-123 -2 -197 -78q-75 -76 -77 -202q2 -126 77 -202q74 -76 197 -78q48 0 88 14q39 14 65 38h2v-37h144v530h-144zM320 116q-66 1 -104 40t-39 109q1 71 39 110t104 40q59 -1 96 -34t38 -83v-66q-1 -49 -38 -82t-96 -34v0zM266 -192
h129v127h-129v-127z" />
    <glyph glyph-name="glyph361" horiz-adv-x="652" 
d="M285 605h117l-101 138h-153zM458 530v-37h-2q-27 24 -66 38t-87 14q-123 -2 -197 -78q-75 -76 -77 -202q2 -126 77 -202q74 -76 197 -78q48 0 88 14q39 14 65 38h2v-37h144v530h-144zM320 116q-66 1 -104 40t-39 109q1 71 39 110t104 40q59 -1 96 -34t38 -83v-66
q-1 -49 -38 -82t-96 -34v0z" />
    <glyph glyph-name="glyph362" horiz-adv-x="652" 
d="M156 605h349v87h-349v-87zM458 530v-37h-2q-27 24 -66 38t-87 14q-123 -2 -197 -78q-75 -76 -77 -202q2 -126 77 -202q74 -76 197 -78q48 0 88 14q39 14 65 38h2v-37h144v530h-144zM320 116q-66 1 -104 40t-39 109q1 71 39 110t104 40q59 -1 96 -34t38 -83v-66
q-1 -49 -38 -82t-96 -34v0z" />
    <glyph glyph-name="glyph363" horiz-adv-x="652" 
d="M588 -103q-14 -9 -28 -13q-14 -5 -26 -5q-29 0 -29 28q0 23 20 47q19 24 53 46h24v530h-144v-37h-2q-27 24 -66 38t-87 14q-123 -2 -197 -78q-75 -76 -77 -202q2 -126 77 -202q74 -76 197 -78q48 0 88 14q39 14 65 38h2v-37h35q-42 -28 -62 -58q-21 -31 -21 -65
q1 -43 29 -66t78 -23q29 0 56 7q26 7 52 21zM454 232q-1 -49 -38 -82t-96 -34q-66 1 -104 40t-39 109q1 71 39 110t104 40q59 -1 96 -34t38 -83v-66z" />
    <glyph glyph-name="glyph364" horiz-adv-x="662" 
d="M308 574q60 1 97 34q38 33 39 86q-1 53 -39 86q-37 34 -97 35q-59 -1 -96 -35q-38 -33 -39 -86q1 -53 39 -86q37 -33 96 -34v0zM308 633q-27 0 -44 17t-17 44t17 44t44 17q28 0 45 -17t17 -44t-17 -44t-45 -17v0zM458 530v-37h-2q-27 24 -66 38t-87 14q-123 -2 -197 -78
q-75 -76 -77 -202q2 -126 77 -202q74 -76 197 -78q48 0 88 14q39 14 65 38h2v-37h144v530h-144zM320 116q-66 1 -104 40t-39 109q1 71 39 110t104 40q59 -1 96 -34t38 -83v-66q-1 -49 -38 -82t-96 -34v0z" />
    <glyph glyph-name="glyph365" horiz-adv-x="652" 
d="M308 574q60 1 97 34q38 33 39 86q0 35 -18 62q-17 27 -47 43l129 131h-153l-88 -120q-43 -12 -68 -43q-25 -30 -26 -73q1 -53 39 -86q37 -33 96 -34v0zM308 755q28 0 45 -17t17 -44t-17 -44t-45 -17q-27 0 -44 17t-17 44t17 44t44 17v0zM458 530v-37h-2q-27 24 -66 38
t-87 14q-123 -2 -197 -78q-75 -76 -77 -202q2 -126 77 -202q74 -76 197 -78q48 0 88 14q39 14 65 38h2v-37h144v530h-144zM454 232q-1 -49 -38 -82t-96 -34q-66 1 -104 40t-39 109q1 71 39 110t104 40q59 -1 96 -34t38 -83v-66z" />
    <glyph glyph-name="glyph366" horiz-adv-x="652" 
d="M411 600q49 0 80 30q30 30 34 87h-74q-8 -33 -43 -33q-32 2 -68 19q-37 17 -87 19q-51 0 -81 -31q-30 -30 -34 -86h74q4 18 15 27q11 8 28 8q32 -2 69 -20q37 -17 87 -20v0zM458 530v-37h-2q-27 24 -66 38t-87 14q-123 -2 -197 -78q-75 -76 -77 -202q2 -126 77 -202
q74 -76 197 -78q48 0 88 14q39 14 65 38h2v-37h144v530h-144zM320 116q-66 1 -104 40t-39 109q1 71 39 110t104 40q59 -1 96 -34t38 -83v-66q-1 -49 -38 -82t-96 -34v0z" />
    <glyph glyph-name="glyph367" horiz-adv-x="593" 
d="M415 526q16 17 24 39q9 22 9 48q-1 59 -43 96q-41 37 -108 38q-66 -1 -107 -38q-42 -37 -43 -96q0 -26 9 -48q9 -23 25 -40q-61 -22 -100 -64q-40 -43 -52 -101l140 -29q10 44 45 69q35 26 87 26q43 0 68 -15t26 -41q1 -19 -26 -31q-27 -13 -100 -23q-125 -17 -180 -58
q-54 -42 -53 -115q1 -72 55 -114q53 -43 143 -44q60 0 107 20q47 19 72 53h2v-58h133v337q0 69 -35 118q-35 48 -98 71v0zM229 613q1 31 19 49q19 19 49 19q31 0 50 -19q19 -18 19 -49q0 -30 -19 -49q-19 -18 -50 -19q-30 1 -49 19q-18 19 -19 49v0zM407 197q-1 -39 -43 -64
t-108 -26q-42 0 -62 11t-20 35q-1 23 26 38q28 14 92 26q53 9 79 19q25 10 34 24h2v-63z" />
    <glyph glyph-name="glyph368" horiz-adv-x="593" 
d="M415 526q16 17 24 39q9 22 9 48q-1 45 -26 78q-26 33 -70 48l123 124h-153l-95 -130q-37 -17 -58 -48q-22 -31 -22 -72q0 -26 9 -48q9 -23 25 -40q-61 -22 -100 -64q-40 -43 -52 -101l140 -29q10 44 45 69q35 26 87 26q43 0 68 -15t26 -41q1 -19 -26 -31
q-27 -13 -100 -23q-125 -17 -180 -58q-54 -42 -53 -115q1 -72 55 -114q53 -43 143 -44q60 0 107 20q47 19 72 53h2v-58h133v337q0 69 -35 118q-35 48 -98 71v0zM229 613q1 31 19 49q19 19 49 19q31 0 50 -19q19 -18 19 -49q0 -30 -19 -49q-19 -18 -50 -19q-30 1 -49 19
q-18 19 -19 49v0zM407 197q-1 -39 -43 -64t-108 -26q-42 0 -62 11t-20 35q-1 23 26 38q28 14 92 26q53 9 79 19q25 10 34 24h2v-63z" />
    <glyph glyph-name="glyph369" horiz-adv-x="416" 
d="M112 0h148v404h128v126h-128v36q0 41 44 41h111v127h-129q-82 -1 -128 -40q-45 -40 -46 -110v-54h-107v-126h107v-404z" />
    <glyph glyph-name="glyph370" horiz-adv-x="247" 
d="M46 617h153v148h-153v-148zM47 -225h148v755h-148v-755z" />
    <glyph glyph-name="glyph371" horiz-adv-x="418" 
d="M312 137q-32 0 -43 9q-12 10 -11 34v224h131v126h-131v133h-148v-133h-105v-126h105v-233q-1 -87 43 -129t144 -42h102v137h-87z" />
    <glyph glyph-name="glyph372" horiz-adv-x="2480" 
d="M186 0h158l179 482h2l178 -482h118l179 482h2l178 -482h118l179 482h2l178 -482h118l179 482h2l178 -482h160l176 700h-156l-119 -484h-2l-170 484h-135l-170 -484h-2l-170 484h-135l-170 -484h-2l-170 484h-135l-170 -484h-2l-170 484h-135l-170 -484h-2l-118 484h-157z
" />
    <glyph glyph-name="glyph375" horiz-adv-x="2224" 
d="M165 0h149l157 376h2l159 -376h108l158 376h2l158 -376h108l158 376h2l158 -376h108l158 376h2l158 -376h149l151 530h-151l-93 -350h-2l-146 350h-133l-146 -350h-2l-145 350h-133l-146 -350h-2l-145 350h-134l-145 -350h-2l-146 350h-133l-145 -350h-2l-94 350h-150z
" />
    <glyph glyph-name="glyph392" horiz-adv-x="739" 
d="M369 -15q151 2 245 100q93 97 96 265q-3 168 -96 265q-94 98 -245 100q-150 -2 -243 -100q-94 -97 -97 -265q3 -168 97 -265q93 -98 243 -100v0zM369 119q-84 0 -135 60q-51 59 -52 171q1 112 52 171q51 60 135 60q85 0 136 -60q51 -59 52 -171q-1 -112 -52 -171
q-51 -60 -136 -60v0z" />
    <glyph glyph-name="glyph393" horiz-adv-x="471" 
d="M234 0h153v700h-140l-223 -118v-160l210 112v-534z" />
    <glyph glyph-name="glyph394" horiz-adv-x="682" 
d="M232 185q16 16 52 33q36 16 103 37q135 41 194 97q58 56 57 145q-2 96 -77 156t-196 62q-138 -1 -224 -71q-86 -71 -99 -192l153 -14q11 70 54 106q43 37 116 37q55 -1 87 -23q32 -23 33 -62q2 -39 -38 -68q-41 -28 -150 -63q-71 -24 -118 -50q-47 -27 -78 -60
q-27 -28 -40 -65t-13 -85v-105h581v134h-415q1 20 5 31q3 11 13 20v0z" />
    <glyph glyph-name="glyph395" horiz-adv-x="692" 
d="M354 -15q134 1 213 61q79 59 81 160q-1 55 -29 101q-29 45 -78 68v2q46 26 68 60q22 35 22 78q-2 90 -78 144q-76 55 -200 56q-128 -1 -209 -60q-82 -59 -102 -166l148 -25q28 120 163 120q60 0 94 -23q33 -23 34 -65q0 -37 -31 -57q-30 -20 -88 -20h-83v-115h84
q67 0 100 -22q32 -22 32 -67q-1 -47 -37 -73q-37 -26 -104 -26q-74 0 -116 36q-43 36 -54 107l-150 -29q18 -115 102 -179q85 -65 218 -66v0z" />
    <glyph glyph-name="glyph396" horiz-adv-x="693" 
d="M420 0h153v116h101v142h-101v442h-253l-315 -442v-142h415v-116zM172 258l246 343h2v-343h-248z" />
    <glyph glyph-name="glyph397" horiz-adv-x="686" 
d="M352 -15q144 1 226 68q82 66 84 180q-2 109 -80 176t-207 69q-50 0 -93 -12q-44 -11 -79 -34l-2 1l21 133h366v134h-482l-65 -369l144 -40q33 29 74 47q40 18 91 19q78 -1 118 -35q41 -34 41 -85q-1 -53 -42 -85t-115 -33q-60 -1 -108 25q-47 26 -69 88l-142 -50
q31 -96 112 -146q82 -51 207 -51v0z" />
    <glyph glyph-name="glyph398" horiz-adv-x="695" 
d="M391 466q-64 0 -115 -18q-52 -18 -86 -50h-1q9 90 56 138q46 48 127 48q55 0 93 -25t53 -74l141 38q-28 91 -104 141t-188 51q-153 -2 -244 -102q-92 -100 -94 -270q1 -169 91 -263t253 -95q134 2 218 67q83 65 85 173q-2 106 -81 172q-79 67 -204 69v0zM372 116
q-72 1 -115 32t-44 83q1 54 44 86q42 31 115 32q73 -1 114 -32q40 -31 41 -86q-1 -54 -42 -84q-41 -31 -113 -31v0z" />
    <glyph glyph-name="glyph399" horiz-adv-x="607" 
d="M110 0h176l301 579v121h-578v-134h400v-2z" />
    <glyph glyph-name="glyph400" horiz-adv-x="682" 
d="M340 -15q149 2 238 62q88 60 90 158q0 62 -36 109q-36 48 -102 75v2q47 23 70 57t23 77q-2 85 -80 137q-77 52 -203 53q-125 -1 -202 -53q-78 -52 -80 -137q0 -43 24 -77q23 -34 68 -57v-2q-65 -27 -100 -75q-36 -47 -36 -109q2 -98 90 -158t236 -62v0zM340 436
q-60 0 -93 21q-33 20 -33 58q0 35 33 55q33 21 93 21q61 0 94 -21q34 -20 34 -55q0 -38 -34 -58q-33 -21 -94 -21v0zM340 125q-80 1 -122 26t-42 66q1 45 44 71t120 27q79 -1 122 -27q42 -26 43 -71q0 -41 -42 -66q-41 -25 -123 -26v0z" />
    <glyph glyph-name="glyph401" horiz-adv-x="659" 
d="M315 715q-134 -2 -214 -69q-80 -68 -82 -175q2 -107 77 -171q76 -65 204 -67q58 0 102 15t73 41h2q-6 -88 -44 -131q-37 -42 -103 -42q-53 -1 -86 23q-33 23 -51 76l-139 -42q27 -89 97 -138t179 -50q147 0 223 98t76 294q-1 162 -82 250q-81 87 -232 88v0zM168 470
q1 54 40 85q40 30 110 30q69 -1 110 -34q40 -33 41 -82q-1 -54 -40 -84q-40 -30 -110 -30q-72 1 -111 31t-40 84v0z" />
    <glyph glyph-name="glyph402" 
d="M360 -15q151 2 244 100q93 97 96 265q-3 168 -96 265q-93 98 -244 100q-151 -2 -244 -100q-93 -97 -96 -265q3 -168 96 -265q93 -98 244 -100v0zM360 119q-85 0 -135 60q-51 59 -52 171q1 112 52 171q50 60 135 60t135 -60q51 -59 52 -171q-1 -112 -52 -171
q-50 -60 -135 -60v0z" />
    <glyph glyph-name="glyph403" 
d="M443 134v566h-140l-223 -118v-160l210 112v-400h-215v-134h569v134h-201z" />
    <glyph glyph-name="glyph404" 
d="M251 185q16 16 52 33q36 16 103 37q135 41 194 97q58 56 57 145q-2 96 -77 156t-196 62q-138 -1 -224 -71q-86 -71 -99 -192l153 -14q11 70 54 106q43 37 116 37q55 -1 87 -23q32 -23 33 -62q2 -39 -38 -68q-41 -28 -150 -63q-71 -24 -118 -50q-47 -27 -78 -60
q-27 -28 -40 -65t-13 -85v-105h581v134h-415q1 20 5 31q3 11 13 20v0z" />
    <glyph glyph-name="glyph405" 
d="M372 -15q134 1 213 61q79 59 81 160q-1 55 -29 101q-29 45 -78 68v2q46 26 68 60q22 35 22 78q-2 90 -78 144q-76 55 -200 56q-128 -1 -209 -60q-82 -59 -102 -166l148 -25q28 120 163 120q60 0 94 -23q33 -23 34 -65q0 -37 -31 -57q-30 -20 -88 -20h-83v-115h84
q67 0 100 -22q32 -22 32 -67q-1 -47 -37 -73q-37 -26 -104 -26q-74 0 -116 36q-43 36 -54 107l-150 -29q18 -115 102 -179q85 -65 218 -66v0z" />
    <glyph glyph-name="glyph406" 
d="M441 0h153v116h101v142h-101v442h-253l-315 -442v-142h415v-116zM193 258l246 343h2v-343h-248z" />
    <glyph glyph-name="glyph407" 
d="M365 -15q144 1 226 68q82 66 84 180q-2 109 -80 176t-207 69q-50 0 -93 -12q-44 -11 -79 -34l-2 1l21 133h366v134h-482l-65 -369l144 -40q33 29 74 47q40 18 91 19q78 -1 118 -35q41 -34 41 -85q-1 -53 -42 -85t-115 -33q-60 -1 -108 25q-47 26 -69 88l-142 -50
q31 -96 112 -146q82 -51 207 -51v0z" />
    <glyph glyph-name="glyph408" 
d="M396 466q-64 0 -115 -18q-52 -18 -86 -50h-1q9 90 56 138q46 48 127 48q55 0 93 -25t53 -74l141 38q-28 91 -104 141t-188 51q-153 -2 -244 -102q-92 -100 -94 -270q1 -169 91 -263t253 -95q134 2 218 67q83 65 85 173q-2 106 -81 172q-79 67 -204 69v0zM377 116
q-72 1 -115 32t-44 83q1 54 44 86q42 31 115 32q73 -1 114 -32q40 -31 41 -86q-1 -54 -42 -84q-41 -31 -113 -31v0z" />
    <glyph glyph-name="glyph409" 
d="M171 0h176l301 579v121h-578v-134h400v-2z" />
    <glyph glyph-name="glyph410" 
d="M362 -15q149 2 238 62q88 60 90 158q0 62 -36 109q-36 48 -102 75v2q47 23 70 57t23 77q-2 85 -80 137q-77 52 -203 53q-125 -1 -202 -53q-78 -52 -80 -137q0 -43 24 -77q23 -34 68 -57v-2q-65 -27 -100 -75q-36 -47 -36 -109q2 -98 90 -158t236 -62v0zM362 436
q-60 0 -93 21q-33 20 -33 58q0 35 33 55q33 21 93 21q61 0 94 -21q34 -20 34 -55q0 -38 -34 -58q-33 -21 -94 -21v0zM362 125q-80 1 -122 26t-42 66q1 45 44 71t120 27q79 -1 122 -27q42 -26 43 -71q0 -41 -42 -66q-41 -25 -123 -26v0z" />
    <glyph glyph-name="glyph411" 
d="M349 715q-134 -2 -214 -69q-80 -68 -82 -175q2 -107 77 -171q76 -65 204 -67q58 0 102 15t73 41h2q-6 -88 -44 -131q-37 -42 -103 -42q-53 -1 -86 23q-33 23 -51 76l-139 -42q27 -89 97 -138t179 -50q147 0 223 98t76 294q-1 162 -82 250q-81 87 -232 88v0zM202 470
q1 54 40 85q40 30 110 30q69 -1 110 -34q40 -33 41 -82q-1 -54 -40 -84q-40 -30 -110 -30q-72 1 -111 31t-40 84v0z" />
    <glyph glyph-name="glyph412" horiz-adv-x="735" 
d="M368 687q-150 -2 -243 -96q-93 -95 -96 -255q3 -160 96 -255q93 -94 243 -96q150 2 243 96q92 95 95 255q-3 160 -95 255q-93 94 -243 96v0zM368 560q17 0 34 -2q16 -3 30 -8l-215 -366q-20 29 -31 67t-11 85q1 108 54 166q52 57 139 58v0zM368 112q-36 0 -68 11l215 368
q22 -29 33 -67q12 -39 12 -88q-1 -108 -53 -166q-52 -57 -139 -58v0z" />
    <glyph glyph-name="glyph413" horiz-adv-x="739" 
d="M369 715q-150 -2 -243 -100q-94 -97 -97 -265q3 -168 97 -265q93 -98 243 -100q151 2 244 100q94 97 97 265q-3 168 -97 265q-93 98 -244 100v0zM370 590q39 0 71 -12l-227 -387q-19 30 -29 70q-11 40 -11 89q1 117 55 178q53 62 141 62v0zM370 110q-42 0 -76 15l228 389
q20 -30 32 -71q11 -41 11 -93q-1 -117 -54 -178q-53 -62 -141 -62v0z" />
    <glyph glyph-name="glyph414" 
d="M359 715q-150 -2 -243 -100q-94 -97 -97 -265q3 -168 97 -265q93 -98 243 -100q151 2 244 100q94 97 97 265q-3 168 -97 265q-93 98 -244 100v0zM360 590q39 0 71 -12l-227 -387q-19 30 -29 70q-11 40 -11 89q1 117 55 178q53 62 141 62v0zM360 110q-42 0 -76 15l228 389
q20 -30 32 -71q11 -41 11 -93q-1 -117 -54 -178q-53 -62 -141 -62v0z" />
    <glyph glyph-name="glyph415" horiz-adv-x="466" 
d="M232 -159q98 2 153 63t56 156q-1 95 -56 156t-153 63q-96 -2 -152 -63q-55 -61 -56 -156q1 -95 56 -156q56 -61 152 -63v0zM232 -65q-48 1 -74 34q-27 33 -27 91t27 91q26 33 74 34q50 -1 76 -34t26 -91t-26 -91t-76 -34v0z" />
    <glyph glyph-name="glyph416" horiz-adv-x="335" 
d="M163 -150h107v420h-99l-152 -79v-107l144 76v-310z" />
    <glyph glyph-name="glyph417" horiz-adv-x="425" 
d="M158 -32q8 7 25 13q17 7 47 15q93 25 132 60q39 34 38 89q-1 60 -49 96q-48 37 -127 38q-86 -1 -139 -43q-53 -43 -61 -116l104 -9q5 36 30 56q26 20 66 20q32 0 51 -12q19 -11 19 -31q1 -20 -23 -35q-25 -16 -86 -33q-41 -12 -70 -26t-48 -32q-36 -35 -36 -101v-67h363
v94h-248q1 8 4 14t8 10v0z" />
    <glyph glyph-name="glyph418" horiz-adv-x="426" 
d="M220 -159q84 1 133 36q48 36 49 98q0 34 -16 59q-17 25 -47 39v1q23 13 35 33q12 19 12 44q-1 58 -48 93q-47 34 -123 35q-76 -1 -125 -36q-49 -36 -63 -99l100 -18q7 30 30 47t58 17q31 0 49 -12t18 -32t-15 -30q-16 -10 -45 -10h-48v-80h54q36 0 52 -10q16 -11 16 -34
q0 -24 -20 -37q-20 -14 -56 -14q-38 0 -63 20q-24 19 -33 59l-105 -23q13 -69 66 -107t135 -39v0z" />
    <glyph glyph-name="glyph419" horiz-adv-x="448" 
d="M270 -150h107v67h61v95h-61v258h-177l-190 -258v-95h260v-67zM127 12l142 191h1v-191h-143z" />
    <glyph glyph-name="glyph420" horiz-adv-x="441" 
d="M225 -159q87 2 138 45q52 43 53 109q-1 64 -49 103q-49 39 -130 40q-54 0 -96 -19l-1 1l14 59h216v91h-295l-46 -220l91 -26q20 17 46 27q25 10 58 10q40 0 63 -18q23 -17 24 -47q-1 -27 -25 -44t-62 -18q-40 0 -67 15t-46 47l-87 -53q26 -45 77 -73q50 -28 124 -29v0z
" />
    <glyph glyph-name="glyph421" horiz-adv-x="454" 
d="M256 130q-36 0 -67 -10q-30 -11 -51 -29h-1q3 45 30 72q26 26 69 27q55 0 73 -46l104 29q-17 50 -63 78q-47 28 -114 28q-95 -2 -153 -61q-57 -60 -59 -160q1 -101 58 -159q57 -57 161 -58q84 1 135 41t52 107q-1 64 -48 102q-48 38 -126 39v0zM238 -69q-41 0 -63 16
t-22 43q0 28 22 45t63 17q40 0 62 -16q23 -16 23 -45q0 -28 -23 -44q-22 -16 -62 -16v0z" />
    <glyph glyph-name="glyph422" horiz-adv-x="358" 
d="M49 -150h126l188 338v82h-363v-94h234v-1z" />
    <glyph glyph-name="glyph423" horiz-adv-x="445" 
d="M223 -159q95 2 146 40t52 93q-1 38 -23 67q-23 28 -55 42v1q22 11 37 32q14 20 15 47q-2 53 -49 84q-48 31 -123 32q-76 -1 -124 -32q-47 -31 -49 -84q1 -27 15 -47q15 -21 37 -32v-1q-32 -14 -55 -42q-22 -29 -23 -67q1 -55 52 -93q52 -38 147 -40v0zM223 113
q-33 0 -52 12q-20 11 -20 31t20 32q19 11 52 11t52 -11q19 -12 19 -32t-19 -31q-19 -12 -52 -12v0zM223 -69q-45 0 -67 15q-22 14 -22 39t23 40t66 15q42 0 66 -15q23 -15 23 -40t-22 -39q-23 -15 -67 -15v0z" />
    <glyph glyph-name="glyph424" horiz-adv-x="444" 
d="M214 279q-87 -1 -138 -41t-52 -108q1 -63 50 -101t128 -39q35 0 61 8q27 7 45 20h1q-4 -42 -28 -66t-60 -25q-33 0 -53 13q-21 13 -35 38l-86 -47q26 -44 69 -67q44 -23 105 -23q93 1 145 59t53 166q-1 96 -54 154q-54 58 -151 59v0zM131 133q0 28 23 44q22 16 62 16
q39 0 62 -16t23 -44q0 -29 -23 -45q-22 -16 -62 -16t-62 16q-23 16 -23 45v0z" />
    <glyph glyph-name="glyph425" horiz-adv-x="466" 
d="M232 -9q98 2 153 63t56 156q-1 95 -56 156t-153 63q-96 -2 -152 -63q-55 -61 -56 -156q1 -95 56 -156q56 -61 152 -63v0zM232 85q-48 1 -74 34q-27 33 -27 91t27 91q26 33 74 34q50 -1 76 -34t26 -91t-26 -91t-76 -34v0z" />
    <glyph glyph-name="glyph426" horiz-adv-x="335" 
d="M163 0h107v420h-99l-152 -79v-107l144 76v-310z" />
    <glyph glyph-name="glyph427" horiz-adv-x="425" 
d="M158 118q8 7 25 13q17 7 47 15q93 25 132 60q39 34 38 89q-1 60 -49 96q-48 37 -127 38q-86 -1 -139 -43q-53 -43 -61 -116l104 -9q5 36 30 56q26 20 66 20q32 0 51 -12q19 -11 19 -31q1 -20 -23 -35q-25 -16 -86 -33q-41 -12 -70 -26t-48 -32q-36 -35 -36 -101v-67h363
v94h-248q1 8 4 14t8 10v0z" />
    <glyph glyph-name="glyph428" horiz-adv-x="426" 
d="M220 -9q84 1 133 36q48 36 49 98q0 34 -16 59q-17 25 -47 39v1q23 13 35 33q12 19 12 44q-1 58 -48 93q-47 34 -123 35q-76 -1 -125 -36q-49 -36 -63 -99l100 -18q7 30 30 47t58 17q31 0 49 -12t18 -32t-15 -30q-16 -10 -45 -10h-48v-80h54q36 0 52 -10q16 -11 16 -34
q0 -24 -20 -37q-20 -14 -56 -14q-38 0 -63 20q-24 19 -33 59l-105 -23q13 -69 66 -107t135 -39v0z" />
    <glyph glyph-name="glyph429" horiz-adv-x="448" 
d="M270 0h107v67h61v95h-61v258h-177l-190 -258v-95h260v-67zM127 162l142 191h1v-191h-143z" />
    <glyph glyph-name="glyph430" horiz-adv-x="441" 
d="M225 -9q87 2 138 45q52 43 53 109q-1 64 -49 103q-49 39 -130 40q-54 0 -96 -19l-1 1l14 59h216v91h-295l-46 -220l91 -26q20 17 46 27q25 10 58 10q40 0 63 -18q23 -17 24 -47q-1 -27 -25 -44t-62 -18q-40 0 -67 15t-46 47l-87 -53q26 -45 77 -73q50 -28 124 -29v0z" />
    <glyph glyph-name="glyph431" horiz-adv-x="454" 
d="M256 280q-36 0 -67 -10q-30 -11 -51 -29h-1q3 45 30 72q26 26 69 27q55 0 73 -46l104 29q-17 50 -63 78q-47 28 -114 28q-95 -2 -153 -61q-57 -60 -59 -160q1 -101 58 -159q57 -57 161 -58q84 1 135 41t52 107q-1 64 -48 102q-48 38 -126 39v0zM238 81q-41 0 -63 16
t-22 43q0 28 22 45t63 17q40 0 62 -16q23 -16 23 -45q0 -28 -23 -44q-22 -16 -62 -16v0z" />
    <glyph glyph-name="glyph432" horiz-adv-x="358" 
d="M49 0h126l188 338v82h-363v-94h234v-1z" />
    <glyph glyph-name="glyph433" horiz-adv-x="445" 
d="M223 -9q95 2 146 40t52 93q-1 38 -23 67q-23 28 -55 42v1q22 11 37 32q14 20 15 47q-2 53 -49 84q-48 31 -123 32q-76 -1 -124 -32q-47 -31 -49 -84q1 -27 15 -47q15 -21 37 -32v-1q-32 -14 -55 -42q-22 -29 -23 -67q1 -55 52 -93q52 -38 147 -40v0zM223 263
q-33 0 -52 12q-20 11 -20 31t20 32q19 11 52 11t52 -11q19 -12 19 -32t-19 -31q-19 -12 -52 -12v0zM223 81q-45 0 -67 15q-22 14 -22 39t23 40t66 15q42 0 66 -15q23 -15 23 -40t-22 -39q-23 -15 -67 -15v0z" />
    <glyph glyph-name="glyph434" horiz-adv-x="444" 
d="M214 429q-87 -1 -138 -41t-52 -108q1 -63 50 -101t128 -39q35 0 61 8q27 7 45 20h1q-4 -42 -28 -66t-60 -25q-33 0 -53 13q-21 13 -35 38l-86 -47q26 -44 69 -67q44 -23 105 -23q93 1 145 59t53 166q-1 96 -54 154q-54 58 -151 59v0zM131 283q0 28 23 44q22 16 62 16
q39 0 62 -16t23 -44q0 -29 -23 -45q-22 -16 -62 -16t-62 16q-23 16 -23 45v0z" />
    <glyph glyph-name="glyph435" horiz-adv-x="466" 
d="M232 271q98 2 153 63t56 156q-1 95 -56 156t-153 63q-96 -2 -152 -63q-55 -61 -56 -156q1 -95 56 -156q56 -61 152 -63v0zM232 365q-48 1 -74 34q-27 33 -27 91t27 91q26 33 74 34q50 -1 76 -34t26 -91t-26 -91t-76 -34v0z" />
    <glyph glyph-name="glyph436" horiz-adv-x="335" 
d="M163 280h107v420h-99l-152 -79v-107l144 76v-310z" />
    <glyph glyph-name="glyph437" horiz-adv-x="425" 
d="M158 398q8 7 25 13q17 7 47 15q93 25 132 60q39 34 38 89q-1 60 -49 96q-48 37 -127 38q-86 -1 -139 -43q-53 -43 -61 -116l104 -9q5 36 30 56q26 20 66 20q32 0 51 -12q19 -11 19 -31q1 -20 -23 -35q-25 -16 -86 -33q-41 -12 -70 -26t-48 -32q-36 -35 -36 -101v-67h363
v94h-248q1 8 4 14t8 10v0z" />
    <glyph glyph-name="glyph438" horiz-adv-x="426" 
d="M220 271q84 1 133 36q48 36 49 98q0 34 -16 59q-17 25 -47 39v1q23 13 35 33q12 19 12 44q-1 58 -48 93q-47 34 -123 35q-76 -1 -125 -36q-49 -36 -63 -99l100 -18q7 30 30 47t58 17q31 0 49 -12t18 -32t-15 -30q-16 -10 -45 -10h-48v-80h54q36 0 52 -10q16 -11 16 -34
q0 -24 -20 -37q-20 -14 -56 -14q-38 0 -63 20q-24 19 -33 59l-105 -23q13 -69 66 -107t135 -39v0z" />
    <glyph glyph-name="glyph439" horiz-adv-x="448" 
d="M270 280h107v67h61v95h-61v258h-177l-190 -258v-95h260v-67zM127 442l142 191h1v-191h-143z" />
    <glyph glyph-name="glyph440" horiz-adv-x="441" 
d="M225 271q87 2 138 45q52 43 53 109q-1 64 -49 103q-49 39 -130 40q-54 0 -96 -19l-1 1l14 59h216v91h-295l-46 -220l91 -26q20 17 46 27q25 10 58 10q40 0 63 -18q23 -17 24 -47q-1 -27 -25 -44t-62 -18q-40 0 -67 15t-46 47l-87 -53q26 -45 77 -73q50 -28 124 -29v0z
" />
    <glyph glyph-name="glyph441" horiz-adv-x="454" 
d="M256 560q-36 0 -67 -10q-30 -11 -51 -29h-1q3 45 30 72q26 26 69 27q55 0 73 -46l104 29q-17 50 -63 78q-47 28 -114 28q-95 -2 -153 -61q-57 -60 -59 -160q1 -101 58 -159q57 -57 161 -58q84 1 135 41t52 107q-1 64 -48 102q-48 38 -126 39v0zM238 361q-41 0 -63 16
t-22 43q0 28 22 45t63 17q40 0 62 -16q23 -16 23 -45q0 -28 -23 -44q-22 -16 -62 -16v0z" />
    <glyph glyph-name="glyph442" horiz-adv-x="358" 
d="M49 280h126l188 338v82h-363v-94h234v-1z" />
    <glyph glyph-name="glyph443" horiz-adv-x="445" 
d="M223 271q95 2 146 40t52 93q-1 38 -23 67q-23 28 -55 42v1q22 11 37 32q14 20 15 47q-2 53 -49 84q-48 31 -123 32q-76 -1 -124 -32q-47 -31 -49 -84q1 -27 15 -47q15 -21 37 -32v-1q-32 -14 -55 -42q-22 -29 -23 -67q1 -55 52 -93q52 -38 147 -40v0zM223 543
q-33 0 -52 12q-20 11 -20 31t20 32q19 11 52 11t52 -11q19 -12 19 -32t-19 -31q-19 -12 -52 -12v0zM223 361q-45 0 -67 15q-22 14 -22 39t23 40t66 15q42 0 66 -15q23 -15 23 -40t-22 -39q-23 -15 -67 -15v0z" />
    <glyph glyph-name="glyph444" horiz-adv-x="444" 
d="M214 709q-87 -1 -138 -41t-52 -108q1 -63 50 -101t128 -39q35 0 61 8q27 7 45 20h1q-4 -42 -28 -66t-60 -25q-33 0 -53 13q-21 13 -35 38l-86 -47q26 -44 69 -67q44 -23 105 -23q93 1 145 59t53 166q-1 96 -54 154q-54 58 -151 59v0zM131 563q0 28 23 44q22 16 62 16
q39 0 62 -16t23 -44q0 -29 -23 -45q-22 -16 -62 -16t-62 16q-23 16 -23 45v0z" />
    <glyph glyph-name="glyph445" horiz-adv-x="466" 
d="M232 371q98 2 153 63t56 156q-1 95 -56 156t-153 63q-96 -2 -152 -63q-55 -61 -56 -156q1 -95 56 -156q56 -61 152 -63v0zM232 465q-48 1 -74 34q-27 33 -27 91t27 91q26 33 74 34q50 -1 76 -34t26 -91t-26 -91t-76 -34v0z" />
    <glyph glyph-name="glyph446" horiz-adv-x="335" 
d="M163 380h107v420h-99l-152 -79v-107l144 76v-310z" />
    <glyph glyph-name="glyph447" horiz-adv-x="425" 
d="M158 498q8 7 25 13q17 7 47 15q93 25 132 60q39 34 38 89q-1 60 -49 96q-48 37 -127 38q-86 -1 -139 -43q-53 -43 -61 -116l104 -9q5 36 30 56q26 20 66 20q32 0 51 -12q19 -11 19 -31q1 -20 -23 -35q-25 -16 -86 -33q-41 -12 -70 -26t-48 -32q-36 -35 -36 -101v-67h363
v94h-248q1 8 4 14t8 10v0z" />
    <glyph glyph-name="glyph448" horiz-adv-x="426" 
d="M220 371q84 1 133 36q48 36 49 98q0 34 -16 59q-17 25 -47 39v1q23 13 35 33q12 19 12 44q-1 58 -48 93q-47 34 -123 35q-76 -1 -125 -36q-49 -36 -63 -99l100 -18q7 30 30 47t58 17q31 0 49 -12t18 -32t-15 -30q-16 -10 -45 -10h-48v-80h54q36 0 52 -10q16 -11 16 -34
q0 -24 -20 -37q-20 -14 -56 -14q-38 0 -63 20q-24 19 -33 59l-105 -23q13 -69 66 -107t135 -39v0z" />
    <glyph glyph-name="glyph449" horiz-adv-x="448" 
d="M270 380h107v67h61v95h-61v258h-177l-190 -258v-95h260v-67zM127 542l142 191h1v-191h-143z" />
    <glyph glyph-name="glyph450" horiz-adv-x="441" 
d="M225 371q87 2 138 45q52 43 53 109q-1 64 -49 103q-49 39 -130 40q-54 0 -96 -19l-1 1l14 59h216v91h-295l-46 -220l91 -26q20 17 46 27q25 10 58 10q40 0 63 -18q23 -17 24 -47q-1 -27 -25 -44t-62 -18q-40 0 -67 15t-46 47l-87 -53q26 -45 77 -73q50 -28 124 -29v0z
" />
    <glyph glyph-name="glyph451" horiz-adv-x="454" 
d="M256 660q-36 0 -67 -10q-30 -11 -51 -29h-1q3 45 30 72q26 26 69 27q55 0 73 -46l104 29q-17 50 -63 78q-47 28 -114 28q-95 -2 -153 -61q-57 -60 -59 -160q1 -101 58 -159q57 -57 161 -58q84 1 135 41t52 107q-1 64 -48 102q-48 38 -126 39v0zM238 461q-41 0 -63 16
t-22 43q0 28 22 45t63 17q40 0 62 -16q23 -16 23 -45q0 -28 -23 -44q-22 -16 -62 -16v0z" />
    <glyph glyph-name="glyph452" horiz-adv-x="358" 
d="M49 380h126l188 338v82h-363v-94h234v-1z" />
    <glyph glyph-name="glyph453" horiz-adv-x="445" 
d="M223 371q95 2 146 40t52 93q-1 38 -23 67q-23 28 -55 42v1q22 11 37 32q14 20 15 47q-2 53 -49 84q-48 31 -123 32q-76 -1 -124 -32q-47 -31 -49 -84q1 -27 15 -47q15 -21 37 -32v-1q-32 -14 -55 -42q-22 -29 -23 -67q1 -55 52 -93q52 -38 147 -40v0zM223 643
q-33 0 -52 12q-20 11 -20 31t20 32q19 11 52 11t52 -11q19 -12 19 -32t-19 -31q-19 -12 -52 -12v0zM223 461q-45 0 -67 15q-22 14 -22 39t23 40t66 15q42 0 66 -15q23 -15 23 -40t-22 -39q-23 -15 -67 -15v0z" />
    <glyph glyph-name="glyph454" horiz-adv-x="444" 
d="M214 809q-87 -1 -138 -41t-52 -108q1 -63 50 -101t128 -39q35 0 61 8q27 7 45 20h1q-4 -42 -28 -66t-60 -25q-33 0 -53 13q-21 13 -35 38l-86 -47q26 -44 69 -67q44 -23 105 -23q93 1 145 59t53 166q-1 96 -54 154q-54 58 -151 59v0zM131 663q0 28 23 44q22 16 62 16
q39 0 62 -16t23 -44q0 -29 -23 -45q-22 -16 -62 -16t-62 16q-23 16 -23 45v0z" />
    <glyph glyph-name="glyph487" horiz-adv-x="425" 
d="M305 -132h101v125h-83q-32 -1 -45 15t-13 55v169q-1 44 -25 72q-23 28 -61 29v2q38 1 61 29q24 28 25 72v150q0 39 13 55t45 15h83v124h-101q-88 1 -126 -36q-39 -38 -38 -121v-149q1 -33 -11 -46q-12 -14 -43 -13h-28v-161h28q31 1 43 -13q12 -13 11 -46v-170
q-1 -83 38 -120q38 -38 126 -37v0z" />
    <glyph glyph-name="glyph488" horiz-adv-x="425" 
d="M120 -132q88 -1 126 37q39 37 38 120v170q-1 33 11 46q12 14 43 13h28v161h-28q-31 -1 -43 13q-12 13 -11 46v149q1 83 -38 121q-38 37 -126 36h-101v-124h83q33 1 46 -15t12 -55v-150q1 -44 25 -72q23 -28 61 -29v-2q-38 -1 -61 -29q-24 -28 -25 -72v-169q1 -39 -12 -55
t-46 -15h-83v-125h101z" />
    <glyph glyph-name="glyph489" horiz-adv-x="353" 
d="M69 -132h265v120h-141v673h141v119h-265v-912z" />
    <glyph glyph-name="glyph490" horiz-adv-x="353" 
d="M284 -132v912h-265v-119h141v-673h-141v-120h265z" />
    <glyph glyph-name="glyph491" horiz-adv-x="378" 
d="M281 -147l88 66q-82 105 -120 207q-37 103 -37 219t37 219q38 102 120 207l-88 66q-99 -112 -150 -235q-52 -124 -52 -257t52 -256q51 -124 150 -236v0z" />
    <glyph glyph-name="glyph492" horiz-adv-x="378" 
d="M97 -147q99 112 151 236q51 123 51 256t-51 257q-52 123 -151 235l-88 -66q82 -105 120 -207q38 -103 37 -219q1 -116 -37 -219q-38 -102 -120 -207z" />
    <glyph glyph-name="glyph497" horiz-adv-x="844" 
d="M39 289h765v135h-765v-135z" />
    <glyph glyph-name="glyph498" horiz-adv-x="559" 
d="M39 289h480v135h-480v-135z" />
    <glyph glyph-name="glyph499" horiz-adv-x="354" 
d="M39 289h276v135h-276v-135z" />
    <glyph glyph-name="glyph500" horiz-adv-x="354" 
d="M39 289h276v135h-276v-135z" />
    <glyph glyph-name="glyph511" horiz-adv-x="537" 
d="M172 132h121l-114 193l114 193h-121l-113 -193zM366 132h121l-114 193l114 193h-121l-113 -193z" />
    <glyph glyph-name="glyph512" horiz-adv-x="537" 
d="M171 132l113 193l-113 193h-121l114 -193l-114 -193h121zM365 132l113 193l-113 193h-121l114 -193l-114 -193h121z" />
    <glyph glyph-name="glyph513" horiz-adv-x="342" 
d="M172 132h121l-114 193l114 193h-121l-113 -193z" />
    <glyph glyph-name="glyph514" horiz-adv-x="342" 
d="M170 132l113 193l-113 193h-121l114 -193l-114 -193h121z" />
    <glyph glyph-name="glyph527" horiz-adv-x="0" 
 />
    <glyph glyph-name="glyph541" 
d="M573 379v2q34 20 53 54q19 33 19 77q-2 83 -59 135q-57 51 -150 53h-41v101h-71v-101h-245v-700h245v-111h71v111h10q133 0 200 54q66 55 66 164q0 56 -26 98t-72 63v0zM231 566h93v-146h-93v146zM411 566q40 0 61 -19q21 -18 21 -53q0 -36 -21 -55t-61 -19h-16v146h16z
M231 134v167h93v-167h-93zM427 134h-32v167h33q44 0 68 -22q23 -21 23 -61q0 -42 -22 -63q-23 -21 -70 -21v0z" />
    <glyph glyph-name="glyph542" 
d="M407 115v300q42 -7 71 -31q28 -23 41 -64l136 39q-23 77 -89 126q-65 49 -159 58v88h-70v-88q-120 -13 -195 -88q-76 -76 -78 -190q2 -114 78 -190q75 -75 195 -88v-98h70v98q94 9 159 58q66 49 89 126l-136 39q-13 -41 -41 -64q-29 -24 -71 -31v0zM209 265q1 61 35 100
q34 40 93 50v-300q-59 10 -93 50q-34 39 -35 100v0z" />
    <glyph glyph-name="glyph543" 
d="M593 330q0 41 -11 78t-31 67l66 66l-45 45l-64 -64q-30 25 -68 39q-37 14 -81 14t-81 -14q-38 -13 -68 -38l-62 63l-46 -45l65 -66q-20 -30 -31 -67t-11 -78q0 -42 12 -79q11 -37 32 -68l-67 -67l46 -44l65 64q29 -24 66 -37t80 -13t80 14q37 13 66 37l66 -65l46 45
l-68 67q21 30 33 67q11 37 11 79v0zM360 213q-47 0 -73 30q-25 30 -25 86q0 58 25 88q26 31 73 31q46 0 71 -31t25 -88q0 -56 -25 -86t-71 -30v0z" />
    <glyph glyph-name="glyph544" 
d="M679 194q-6 115 -95 164q-89 48 -195 67v158q47 -10 77 -38t44 -74l144 35q-21 84 -90 139q-69 54 -175 67v89h-71v-86q-122 -5 -194 -58q-72 -54 -74 -146q5 -99 86 -142q81 -44 182 -65v-186q-52 11 -85 45t-47 97l-146 -29q20 -110 93 -170q72 -60 185 -72v-100h71v96
q136 3 212 58q77 56 78 151v0zM201 512q0 35 31 54t86 22v-147q-51 11 -84 28q-32 16 -33 43v0zM389 112v175q61 -14 100 -36q40 -21 41 -59q0 -36 -36 -58q-36 -21 -105 -22v0z" />
    <glyph glyph-name="glyph545" 
d="M546 271q-12 -74 -49 -113t-97 -39q-53 0 -91 27t-59 77h135v107h-158v20q0 15 1 28h215v107h-190q22 46 59 71q38 25 88 25q57 0 94 -36t50 -105l144 26q-16 114 -94 181q-77 67 -194 68q-113 -1 -192 -62q-79 -60 -111 -168h-87v-107h70q-1 -7 -1 -14v-14v-20h-69v-107
h85q31 -111 110 -174t195 -64q119 1 197 70q77 69 94 190z" />
    <glyph glyph-name="glyph546" 
d="M531 607h119v127h-124q-81 0 -132 -39t-65 -116l-8 -49h-168v-126h146l-76 -433q-4 -24 -17 -35q-14 -11 -39 -11h-99v-127h104q81 0 132 39q50 39 64 116l79 451h199v126h-177l5 31q4 24 18 35t39 11v0z" />
    <glyph glyph-name="glyph547" 
d="M524 365q-1 -104 -59 -167q-59 -62 -156 -64v208l197 72l-37 100l-160 -58v59l197 72l-37 100l-160 -58v71h-153v-127l-114 -41l37 -101l77 28v-58l-114 -41l37 -101l77 28v-287h153q164 3 265 103q100 99 103 262h-153z" />
    <glyph glyph-name="glyph548" 
d="M422 700h-293v-366h-100v-92h100v-59h-100v-92h100v-91h153v91h139v92h-139v59h140q115 1 186 61q71 59 73 168q-2 108 -74 168t-185 61v0zM413 376h-131v190h131q56 0 85 -22q30 -23 30 -72q-1 -47 -33 -71q-31 -25 -82 -25v0z" />
    <glyph glyph-name="glyph549" 
d="M646 611v89h-573v-129h231q47 0 75 -13q27 -12 37 -40h-343v-86h339q-12 -25 -39 -37q-27 -13 -67 -13h-233v-129h156l162 -253h174l-171 259v2q72 15 116 60q44 44 56 111h80v86h-80q-12 52 -49 91v2h129z" />
    <glyph glyph-name="glyph550" 
d="M320 135q19 17 29 41q11 24 11 54q0 10 -2 20q-1 10 -5 22h176v118h-248q-23 27 -38 51q-14 23 -15 46q0 43 32 68q31 25 92 26q63 0 106 -26t58 -83l148 30q-18 98 -103 155q-86 57 -209 58q-128 -1 -204 -59q-77 -58 -79 -156q0 -34 13 -60q12 -26 33 -50h-59v-118h158
q6 -13 8 -25t2 -24q0 -42 -30 -66t-87 -24h-51v-133h591v133h-327v2z" />
    <glyph glyph-name="glyph551" 
d="M720 466v89h-41l22 145h-140l-18 -145h-365l-18 145h-141l22 -145h-41v-89h55l9 -59h-64v-89h78l49 -318h148l84 318h6l81 -318h149l48 318h77v89h-63l9 59h54zM189 466h94l-15 -59h-72zM526 407h-71l-14 59h92zM220 220h-1l-12 98h38zM503 220h-2l-24 98h38z" />
    <glyph glyph-name="glyph552" 
d="M700 700h-168l-171 -292h-2l-171 292h-168l222 -353h-180v-107h222v-48h-222v-107h222v-85h152v85h223v107h-223v48h223v107h-181z" />
    <glyph glyph-name="glyph578" 
d="M615 422h-192v208h-125v-208h-193v-116h193v-208h125v208h192v116z" />
    <glyph glyph-name="glyph579" 
d="M130 306h460v116h-460v-116z" />
    <glyph glyph-name="glyph580" 
d="M205 106l154 156l155 -156l82 80l-157 156l157 156l-82 82l-155 -156l-154 156l-83 -82l157 -156l-157 -156z" />
    <glyph glyph-name="glyph581" 
d="M359 484q43 1 70 28q27 28 28 69q-1 43 -28 70t-70 28q-41 -1 -69 -28q-27 -27 -28 -70q1 -41 28 -69q28 -27 69 -28v0zM129 306h461v116h-461v-116zM359 44q43 1 70 28t28 69q-1 42 -28 70q-27 27 -70 28q-41 -1 -69 -28q-27 -28 -28 -70q1 -42 28 -69q28 -27 69 -28v0z
" />
    <glyph glyph-name="glyph582" 
d="M126 386h466v117h-466v-117zM126 188h466v118h-466v-118z" />
    <glyph glyph-name="glyph583" 
d="M592 386v117h-98l45 79l-67 41l-68 -120h-278v-117h211l-45 -80h-166v-118h99l-45 -79l68 -41l68 120h276v118h-209l45 80h164z" />
    <glyph glyph-name="glyph584" 
d="M198 75l389 234v84l-389 234l-66 -106l292 -170l-292 -171z" />
    <glyph glyph-name="glyph585" 
d="M521 75l66 105l-292 171l292 170l-66 106l-389 -234v-84z" />
    <glyph glyph-name="glyph586" 
d="M199 145l389 229v81l-389 230l-61 -101l294 -169l-294 -169zM132 0h456v119h-456v-119z" />
    <glyph glyph-name="glyph587" 
d="M521 145l61 101l-294 169l294 169l-61 101l-389 -230v-81zM588 0v119h-456v-119h456z" />
    <glyph glyph-name="glyph588" 
d="M424 513v176h-125v-176h-193v-117h193v-176h125v176h192v117h-192zM103 43h511v118h-511v-118z" />
    <glyph glyph-name="glyph589" 
d="M193 376q12 37 28 56q15 18 34 18q36 -5 90 -37t123 -37q69 0 115 42q46 41 69 119l-125 47q-12 -37 -27 -55q-16 -18 -35 -18q-36 5 -90 37q-54 31 -123 36q-69 0 -115 -41t-69 -120zM193 129q12 37 28 56q15 18 34 18q36 -5 90 -37t123 -37q69 0 115 42q46 41 69 119
l-125 47q-12 -37 -27 -55q-16 -18 -35 -18q-36 5 -90 37q-54 31 -123 36q-69 0 -115 -41t-69 -120z" />
    <glyph glyph-name="glyph590" 
d="M219 441q94 2 151 62q56 59 58 157q-2 98 -58 158q-57 59 -151 61q-94 -2 -151 -61q-57 -60 -59 -158q2 -98 59 -157q57 -60 151 -62v0zM219 548q-44 1 -67 30q-23 30 -23 82t23 82t67 31q43 -1 66 -31t23 -82t-23 -82q-23 -29 -66 -30v0zM154 165l439 254l-59 101
l-439 -253zM501 -179q95 2 152 62q57 59 58 157q-1 98 -58 158q-57 59 -152 61q-94 -2 -151 -61q-56 -60 -58 -158q2 -98 58 -157q57 -60 151 -62v0zM501 -73q-43 1 -66 31t-23 82t23 82t66 31q44 -1 67 -31t23 -82t-23 -82t-67 -31v0z" />
    <glyph glyph-name="glyph591" 
d="M224 481q94 2 151 62q56 60 58 157q-2 98 -58 158q-57 59 -151 61q-94 -2 -151 -61q-57 -60 -59 -158q2 -97 59 -157t151 -62v0zM224 588q-44 1 -67 30q-23 30 -23 82t23 82t67 31q43 -1 66 -31t23 -82t-23 -82q-23 -29 -66 -30v0zM74 237l527 192l-38 102l-527 -191z
M214 -229q67 0 117 34q50 33 74 95q23 -16 48 -23q25 -6 53 -6q94 2 151 62q56 59 58 157q-2 98 -58 158q-57 59 -151 61q-67 0 -117 -34t-75 -97q-22 17 -47 24t-53 7q-94 -2 -151 -61q-56 -60 -58 -158q2 -98 58 -157q57 -60 151 -62v0zM504 -23q-45 1 -69 31t-24 82
t24 82q24 29 69 30q44 -1 68 -30q24 -30 24 -82t-24 -82t-68 -31v0zM216 -123q-44 1 -68 31t-24 82t24 82q24 29 68 30q45 -1 69 -30q24 -30 24 -82t-24 -82t-69 -31v0z" />
    <glyph glyph-name="glyph620" horiz-adv-x="858" 
d="M436 -15q58 0 113 11t112 33l-36 87q-51 -22 -97 -33q-46 -10 -96 -10q-131 1 -206 73q-75 73 -76 202q2 126 78 201q76 76 204 78q127 -2 201 -74q73 -72 75 -192q0 -64 -15 -95q-16 -31 -40 -31q-21 0 -29 12q-9 12 -9 40v116q-1 70 -47 110q-46 39 -129 40
q-74 -1 -124 -33q-49 -33 -63 -91l104 -25q8 29 29 44t55 15q29 0 46 -9t17 -25q2 -14 -22 -24q-25 -11 -102 -27q-67 -15 -98 -43q-30 -28 -30 -73q1 -55 42 -86t113 -32q47 0 85 15q38 14 57 41h2q13 -26 40 -39t65 -13q73 0 113 54q40 55 41 162q-3 153 -106 250
q-103 98 -272 101q-170 -3 -275 -103q-104 -101 -107 -264q2 -169 105 -265q104 -96 282 -98v0zM420 235q-28 0 -43 8q-14 8 -14 25q0 15 12 24q13 10 42 17q47 11 64 18q18 6 21 14h2v-56q-1 -23 -24 -36q-23 -14 -60 -14v0z" />
    <glyph glyph-name="glyph640" horiz-adv-x="0" 
d="M0 424l-50 54l-176 -162v28l-193 -181l51 -54l142 133v-29z" />
    <glyph glyph-name="glyph642" horiz-adv-x="0" 
d="M0 472l-53 58l-229 -214v17l-215 -199l49 -52l140 129v-25z" />
    <glyph glyph-name="glyph643" horiz-adv-x="0" 
d="M-153 617h153v148h-153v-148z" />
    <glyph glyph-name="glyph644" horiz-adv-x="0" 
d="M-415 306h415v101h-415v-101z" />
  </font>
</defs>
</svg>
